<svg xmlns="http://www.w3.org/2000/svg">
<defs>
<font
   horiz-adv-x="2048"
   id="font4747">
<!-- Century Gothic is a trademark of The Monotype Corporation plc. -->
<!-- Copyright: Copyright 2010 Adobe System Incorporated. All rights reserved. -->
<font-face
   font-family="CenturyGothic"
   units-per-em="2048"
   underline-position="-197"
   underline-thickness="119"
   id="font-face4749" />
<missing-glyph
   horiz-adv-x="1536"
   d="M256,0l0,1280l1024,0l0,-1280M288,32l960,0l0,1216l-960,0z"
   id="missing-glyph4751" />
<glyph
   unicode=" "
   horiz-adv-x="567"
   id="glyph4753" />
<glyph
   unicode="!"
   horiz-adv-x="604"
   d="M373,1508l0,-1140l-145,0l0,1140M302,220C336,220 365,208 389,184C413,160 425,131 425,96C425,62 413,33 389,9C365,-16 336,-28 302,-28C268,-28 239,-16 215,9C191,33 179,62 179,96C179,131 191,160 215,184C239,208 268,220 302,220z"
   id="glyph4755" />
<glyph
   unicode="&quot;"
   horiz-adv-x="633"
   d="M562,1045l-103,0l-22,463l148,0M174,1045l-104,0l-22,463l148,0z"
   id="glyph4757" />
<glyph
   unicode="#"
   horiz-adv-x="1475"
   d="M1233,602l0,-108l-248,0l-72,-494l-112,0l72,494l-333,0l-76,-494l-110,0l76,494l-246,0l0,108l263,0l51,334l-253,0l0,109l269,0l70,468l107,0l-68,-468l332,0l68,468l112,0l-69,-468l224,0l0,-109l-240,0l-48,-334M940,936l-334,0l-49,-334l332,0z"
   id="glyph4759" />
<glyph
   unicode="$"
   horiz-adv-x="1135"
   d="M531,1574l131,0l0,-109C727,1453 783,1432 830,1401C876,1370 920,1325 963,1265l-108,-87C804,1257 739,1305 662,1322l0,-499C837,731 945,656 988,599C1043,526 1070,445 1070,356C1070,283 1050,216 1010,155C969,94 915,46 846,12C801,-10 740,-26 662,-36l0,-313l-131,0l0,313C449,-29 383,-16 334,3C285,22 237,52 190,91C143,130 103,175 72,226l107,81C272,184 389,116 531,102l0,619C426,772 360,807 332,826C275,865 233,908 206,955C179,1002 165,1057 165,1119C165,1179 180,1235 210,1286C240,1337 281,1379 333,1411C384,1443 450,1463 531,1471M531,1332C481,1328 441,1317 410,1299C379,1280 355,1256 338,1225C320,1194 311,1159 311,1122C311,1074 325,1033 353,1000C390,955 450,914 531,877M662,106C743,117 807,147 856,194C904,241 928,294 928,353C928,410 910,463 873,512C836,561 765,613 662,668z"
   id="glyph4761" />
<glyph
   unicode="%"
   horiz-adv-x="1587"
   d="M1381,1536l-1072,-1638l-132,0l975,1492C1037,1362 896,1348 730,1348l-54,1C717,1292 738,1231 738,1167C738,1076 706,994 643,922C579,850 494,814 389,814C292,814 211,848 145,915C79,982 46,1063 46,1159C46,1223 61,1281 91,1334C121,1386 164,1428 219,1460C274,1492 331,1508 389,1508C414,1508 454,1502 511,1490C598,1471 692,1462 793,1462C868,1462 938,1467 1005,1477C1071,1486 1157,1506 1263,1536M392,1381C331,1381 280,1360 237,1317C194,1274 173,1222 173,1161C173,1100 194,1049 237,1006C280,963 331,942 392,942C453,942 505,963 548,1006C591,1049 612,1100 612,1161C612,1222 591,1274 548,1317C505,1360 453,1381 392,1381M1195,649C1290,649 1372,615 1440,548C1507,480 1541,398 1541,303C1541,208 1507,126 1440,59C1372,-9 1290,-43 1195,-43C1100,-43 1018,-9 951,59C883,126 849,208 849,303C849,398 883,480 951,548C1018,615 1100,649 1195,649M1195,522C1134,522 1083,501 1040,458C997,415 976,364 976,303C976,242 997,191 1040,148C1083,105 1134,84 1195,84C1256,84 1308,105 1351,148C1394,191 1415,242 1415,303C1415,364 1394,415 1351,458C1308,501 1256,522 1195,522z"
   id="glyph4763" />
<glyph
   unicode="&amp;"
   horiz-adv-x="1550"
   d="M1292,544l100,-106C1328,381 1270,332 1219,291C1253,255 1302,205 1366,140C1417,89 1460,43 1497,0l-205,0l-189,197C976,101 875,38 798,8C721,-22 640,-37 555,-37C442,-37 351,-4 282,61C213,126 179,207 179,304C179,377 202,451 249,525C295,598 389,691 532,804C451,901 400,973 377,1020C354,1066 342,1110 342,1152C342,1225 370,1286 427,1334C492,1390 574,1418 671,1418C732,1418 788,1406 839,1381C890,1356 928,1323 955,1282C982,1240 995,1196 995,1149C995,1100 978,1047 943,992C908,936 840,865 738,778l223,-234l153,-153C1187,452 1247,503 1292,544M647,888C718,943 772,998 808,1051C833,1089 846,1123 846,1152C846,1186 830,1215 797,1240C764,1265 720,1277 665,1277C613,1277 571,1264 538,1239C505,1214 489,1184 489,1149C489,1122 496,1097 509,1074C542,1017 588,955 647,888M629,693C504,599 423,524 384,469C345,413 326,361 326,314C326,258 350,209 397,166C444,123 502,101 571,101C623,101 674,112 724,133C803,167 896,222 1003,299l-240,246C723,587 678,636 629,693z"
   id="glyph4765" />
<glyph
   unicode="'"
   horiz-adv-x="405"
   d="M254,1045l-103,0l-22,463l148,0z"
   id="glyph4767" />
<glyph
   unicode="("
   horiz-adv-x="756"
   d="M470,1536l162,0C567,1402 514,1246 475,1067C436,888 416,704 416,514C416,338 431,168 461,5C490,-158 531,-302 583,-426l-154,0C380,-307 340,-168 311,-7C282,154 267,321 267,495C267,682 284,865 319,1043C354,1220 404,1385 470,1536z"
   id="glyph4769" />
<glyph
   unicode=")"
   horiz-adv-x="756"
   d="M286,-426l-162,0C190,-292 243,-136 282,43C321,222 340,406 340,596C340,772 325,942 296,1105C266,1268 225,1412 173,1536l154,0C377,1417 417,1278 446,1117C475,956 489,788 489,614C489,427 472,245 437,68C402,-110 352,-275 286,-426z"
   id="glyph4771" />
<glyph
   unicode="*"
   horiz-adv-x="870"
   d="M369,1508l130,0l-29,-297l246,176l66,-112l-277,-125l277,-123l-66,-113l-246,174l29,-297l-130,0l31,297l-246,-174l-66,113l281,123l-281,125l66,112l246,-176z"
   id="glyph4773" />
<glyph
   unicode="+"
   horiz-adv-x="1241"
   d="M552,804l0,434l137,0l0,-434l438,0l0,-137l-438,0l0,-434l-137,0l0,434l-437,0l0,137z"
   id="glyph4775" />
<glyph
   unicode=","
   horiz-adv-x="567"
   d="M295,270l135,-64l-203,-378l-99,42z"
   id="glyph4777" />
<glyph
   unicode="-"
   horiz-adv-x="680"
   d="M65,614l550,0l0,-122l-550,0z"
   id="glyph4779" />
<glyph
   unicode="."
   horiz-adv-x="567"
   d="M310,220C344,220 373,208 397,184C421,160 433,131 433,96C433,62 421,33 397,9C373,-16 344,-28 310,-28C276,-28 247,-16 223,9C199,33 187,62 187,96C187,131 199,160 223,184C247,208 276,220 310,220z"
   id="glyph4781" />
<glyph
   unicode="/"
   horiz-adv-x="895"
   d="M836,1508l-611,-1708l-153,0l610,1708z"
   id="glyph4783" />
<glyph
   unicode="0"
   horiz-adv-x="1135"
   d="M65,735C65,929 86,1079 128,1185C169,1291 228,1371 304,1426C380,1481 465,1508 559,1508C654,1508 741,1481 818,1426C895,1371 957,1288 1002,1178C1047,1068 1069,920 1069,735C1069,550 1047,403 1003,294C958,185 897,102 819,47C741,-9 654,-37 559,-37C465,-37 380,-10 305,44C230,98 171,179 129,286C86,393 65,542 65,735M204,732C204,566 219,441 249,356C278,271 322,206 380,162C438,118 499,96 564,96C629,96 690,118 747,161C804,204 847,268 876,354C913,459 931,585 931,732C931,880 915,1001 882,1096C849,1190 804,1259 747,1303C689,1346 628,1368 564,1368C499,1368 437,1346 380,1303C323,1259 279,1195 249,1110C219,1025 204,899 204,732z"
   id="glyph4785" />
<glyph
   unicode="1"
   horiz-adv-x="1135"
   d="M379,1471l289,0l0,-1471l-146,0l0,1327l-231,0z"
   id="glyph4787" />
<glyph
   unicode="2"
   horiz-adv-x="1135"
   d="M237,1010l-141,0C100,1155 149,1275 242,1368C335,1461 449,1508 586,1508C721,1508 831,1464 915,1377C998,1290 1040,1187 1040,1068C1040,985 1020,907 980,834C940,761 862,662 747,537l-366,-395l679,0l0,-142l-999,0l562,607C737,729 811,820 846,879C880,938 897,1000 897,1065C897,1148 866,1219 805,1279C743,1338 667,1368 578,1368C484,1368 406,1337 344,1274C281,1211 246,1123 237,1010z"
   id="glyph4789" />
<glyph
   unicode="3"
   horiz-adv-x="1135"
   d="M271,1130l-150,0C148,1251 201,1345 278,1410C355,1475 447,1508 552,1508C629,1508 700,1491 767,1456C833,1421 884,1373 921,1314C957,1255 975,1193 975,1128C975,1001 912,901 786,827C857,798 915,756 960,701C1024,623 1056,536 1056,439C1056,356 1034,276 990,201C946,125 886,66 810,25C734,-16 649,-37 555,-37C428,-37 323,0 238,73C153,146 98,253 72,394l144,0C241,299 278,230 325,187C386,133 463,106 557,106C664,106 749,138 814,202C879,266 911,341 911,427C911,484 895,538 863,588C830,638 787,676 733,701C678,726 594,742 480,748l0,135C547,883 609,895 664,919C719,942 760,972 785,1009C810,1046 822,1086 822,1129C822,1193 797,1248 746,1295C695,1342 630,1365 552,1365C489,1365 434,1347 388,1312C342,1276 303,1215 271,1130z"
   id="glyph4791" />
<glyph
   unicode="4"
   horiz-adv-x="1135"
   d="M872,1508l30,0l0,-1025l178,0l0,-141l-178,0l0,-342l-147,0l0,342l-703,0M755,483l0,613l-433,-613z"
   id="glyph4793" />
<glyph
   unicode="5"
   horiz-adv-x="1135"
   d="M1007,1471l0,-140l-524,0l-73,-401C474,949 532,958 583,958C717,958 828,913 915,824C1002,734 1045,619 1045,479C1045,382 1023,294 978,213C933,132 873,71 797,28C720,-15 632,-37 532,-37C413,-37 312,0 230,73C148,146 99,240 83,356l151,0C245,299 265,253 292,218C319,183 355,154 400,133C445,111 492,100 541,100C638,100 721,137 790,210C859,283 894,375 894,485C894,584 863,665 800,727C737,789 654,820 549,820C462,820 357,794 234,741l136,730z"
   id="glyph4795" />
<glyph
   unicode="6"
   horiz-adv-x="1135"
   d="M751,1508l121,-79l-397,-602C528,845 578,854 625,854C742,854 841,812 922,728C1003,643 1044,539 1044,416C1044,331 1024,255 985,187C946,118 890,64 818,24C745,-17 667,-37 584,-37C503,-37 429,-17 360,22C291,61 236,115 197,186C158,257 138,332 138,413C138,473 150,536 175,603C199,669 242,749 305,842M590,725C505,725 432,695 372,635C311,574 281,501 281,415C281,330 311,257 372,197C432,136 505,106 590,106C675,106 748,136 809,197C869,257 899,330 899,415C899,501 869,574 809,635C748,695 675,725 590,725z"
   id="glyph4797" />
<glyph
   unicode="7"
   horiz-adv-x="1135"
   d="M147,1471l933,0l-787,-1508l-121,62l680,1307l-705,0z"
   id="glyph4799" />
<glyph
   unicode="8"
   horiz-adv-x="1135"
   d="M787,807C886,758 958,701 1001,638C1044,575 1065,503 1065,422C1065,309 1028,209 954,122C863,16 734,-37 565,-37C402,-37 279,10 195,103C111,196 69,298 69,410C69,492 91,566 135,632C179,697 252,756 355,807C283,844 229,891 193,946C157,1001 139,1061 139,1124C139,1188 158,1251 197,1312C235,1373 288,1421 356,1456C423,1491 496,1508 575,1508C652,1508 723,1490 788,1455C853,1420 905,1372 942,1311C979,1250 997,1187 997,1120C997,1053 980,994 945,942C910,890 857,845 787,807M568,1365C487,1365 421,1341 368,1294C315,1246 288,1189 288,1123C288,1058 317,999 374,946C431,893 497,866 573,866C622,866 668,878 711,902C754,926 788,959 813,1001C837,1042 849,1084 849,1126C849,1185 825,1240 777,1290C729,1340 659,1365 568,1365M575,733C474,733 389,700 320,635C251,569 217,492 217,405C217,351 232,300 261,252C290,204 331,167 384,141C437,115 498,102 567,102C674,102 760,134 823,197C886,260 918,334 918,419C918,501 885,574 818,638C751,701 670,733 575,733z"
   id="glyph4801" />
<glyph
   unicode="9"
   horiz-adv-x="1135"
   d="M393,-37l-121,78l397,602C616,626 566,617 519,617C402,617 303,659 222,744C141,828 100,932 100,1055C100,1140 120,1216 159,1284C198,1352 254,1406 327,1447C399,1488 476,1508 559,1508C640,1508 716,1488 785,1449C854,1410 908,1355 947,1284C986,1213 1006,1138 1006,1058C1006,997 994,934 970,868C945,801 902,721 839,628M553,746C639,746 712,776 773,837C833,897 863,970 863,1055C863,1140 833,1213 773,1274C712,1334 639,1364 553,1364C468,1364 395,1334 335,1274C274,1213 244,1140 244,1055C244,970 274,897 335,837C395,776 468,746 553,746z"
   id="glyph4803" />
<glyph
   unicode=":"
   horiz-adv-x="567"
   d="M310,1116C344,1116 373,1104 397,1080C421,1056 433,1027 433,992C433,957 421,928 397,904C373,880 344,868 310,868C276,868 247,880 223,904C199,928 187,957 187,992C187,1026 199,1055 223,1080C247,1104 276,1116 310,1116M310,220C344,220 373,208 397,184C421,160 433,131 433,96C433,62 421,33 397,9C373,-16 344,-28 310,-28C276,-28 247,-16 223,9C199,33 187,62 187,96C187,131 199,160 223,184C247,208 276,220 310,220z"
   id="glyph4805" />
<glyph
   unicode=";"
   horiz-adv-x="567"
   d="M310,1116C344,1116 373,1104 397,1080C421,1056 433,1027 433,992C433,957 421,928 397,904C373,880 344,868 310,868C276,868 247,880 223,904C199,928 187,957 187,992C187,1026 199,1055 223,1080C247,1104 276,1116 310,1116M295,270l135,-64l-203,-378l-99,42z"
   id="glyph4807" />
<glyph
   unicode="&lt;"
   horiz-adv-x="1241"
   d="M1137,347l0,-146l-1033,469l0,130l1033,471l0,-147l-839,-390z"
   id="glyph4809" />
<glyph
   unicode="="
   horiz-adv-x="1241"
   d="M1127,1024l0,-137l-1012,0l0,137M1127,584l0,-137l-1012,0l0,137z"
   id="glyph4811" />
<glyph
   unicode="&gt;"
   horiz-adv-x="1241"
   d="M104,347l839,387l-839,390l0,147l1033,-471l0,-130l-1033,-469z"
   id="glyph4813" />
<glyph
   unicode="?"
   horiz-adv-x="1210"
   d="M315,1071l-145,0C171,1206 212,1312 291,1391C370,1469 475,1508 608,1508C739,1508 841,1475 916,1409C991,1343 1028,1261 1028,1163C1028,1116 1018,1073 998,1034C977,994 946,958 905,927C864,895 791,859 688,818C558,766 479,727 452,702C424,676 410,645 410,608C410,569 429,535 467,504C504,473 553,458 613,458C679,458 730,475 765,509C800,542 822,596 830,670l146,0C971,559 937,472 873,411C808,349 722,318 613,318C505,318 419,346 355,402C291,458 259,527 259,609C259,649 268,687 286,723C303,758 328,788 361,812C393,836 454,866 543,903C687,962 779,1006 820,1035C860,1064 880,1106 880,1161C880,1219 856,1268 807,1308C758,1348 692,1368 610,1368C510,1368 432,1335 377,1269C338,1223 318,1157 315,1071M607,220C641,220 670,208 694,184C718,160 730,131 730,96C730,62 718,33 694,9C670,-16 641,-28 607,-28C573,-28 544,-16 520,9C496,33 484,62 484,96C484,131 496,160 520,184C544,208 573,220 607,220z"
   id="glyph4815" />
<glyph
   unicode="@"
   horiz-adv-x="1776"
   d="M1444,301l106,0C1461,190 1378,112 1302,67C1194,4 1071,-27 933,-27C787,-27 652,8 529,77C406,146 310,240 241,359C172,478 137,609 137,750C137,893 172,1027 242,1150C311,1273 406,1369 526,1438C646,1506 777,1540 920,1540C1121,1540 1291,1476 1430,1347C1569,1218 1638,1067 1638,896C1638,771 1609,664 1552,574C1494,483 1416,413 1317,363C1242,324 1177,305 1124,305C1085,305 1055,315 1032,336C1015,351 1006,378 1005,416C982,387 951,363 912,344C872,325 831,315 788,315C692,315 613,348 550,415C487,481 456,569 456,678C456,796 494,904 570,1001C646,1098 751,1147 884,1147C943,1147 992,1136 1032,1114C1071,1092 1109,1054 1144,999l26,138l108,0l-116,-654C1159,462 1157,448 1157,442C1157,427 1162,415 1171,406C1180,397 1192,393 1207,393C1246,393 1298,416 1361,462C1424,507 1473,566 1508,638C1543,709 1560,789 1560,876C1560,1045 1494,1186 1363,1297C1240,1400 1091,1452 915,1452C784,1452 666,1422 560,1363C453,1303 369,1219 308,1111C246,1002 215,885 215,759C215,632 246,514 308,407C370,299 456,214 566,153C675,92 796,61 928,61C1025,61 1112,78 1191,113C1270,148 1354,210 1444,301M838,428C882,428 923,442 962,470C1001,497 1031,539 1054,594C1083,667 1098,740 1098,813C1098,880 1079,935 1042,977C1004,1019 955,1040 895,1040C815,1040 746,1007 688,942C629,876 600,794 600,696C600,614 622,549 667,501C711,452 768,428 838,428z"
   id="glyph4817" />
<glyph
   unicode="A"
   horiz-adv-x="1515"
   d="M780,1471l686,-1471l-158,0l-231,484l-634,0l-230,-484l-164,0l695,1471M762,1159l-253,-533l503,0z"
   id="glyph4819" />
<glyph
   unicode="B"
   horiz-adv-x="1176"
   d="M183,1471l290,0C590,1471 679,1457 742,1430C805,1402 854,1359 891,1302C927,1245 945,1181 945,1111C945,1046 929,986 897,933C865,879 818,835 756,802C833,776 892,746 933,711C974,676 1007,633 1030,584C1053,534 1064,480 1064,422C1064,304 1021,204 935,123C848,41 732,0 587,0l-404,0M327,1327l0,-471l84,0C513,856 588,866 636,885C684,904 722,934 750,975C778,1016 792,1061 792,1111C792,1178 769,1231 722,1270C675,1308 600,1327 497,1327M327,708l0,-564l182,0C616,144 695,155 745,176C795,197 835,229 866,274C896,319 911,367 911,419C911,484 890,541 847,590C804,639 746,672 671,690C621,702 534,708 410,708z"
   id="glyph4821" />
<glyph
   unicode="C"
   horiz-adv-x="1665"
   d="M1549,1198l-116,-89C1369,1192 1292,1256 1203,1299C1113,1342 1014,1363 907,1363C790,1363 681,1335 581,1279C481,1222 404,1147 349,1052C294,957 266,850 266,731C266,552 328,402 451,282C574,162 729,102 916,102C1122,102 1294,183 1433,344l116,-88C1476,163 1384,91 1275,40C1165,-11 1042,-37 907,-37C650,-37 447,49 298,220C173,365 111,539 111,744C111,959 187,1141 338,1288C489,1435 678,1508 905,1508C1042,1508 1166,1481 1277,1427C1388,1372 1478,1296 1549,1198z"
   id="glyph4823" />
<glyph
   unicode="D"
   horiz-adv-x="1524"
   d="M179,0l0,1471l305,0C704,1471 864,1453 963,1418C1106,1368 1217,1281 1298,1158C1378,1035 1418,888 1418,717C1418,570 1386,440 1323,328C1259,216 1176,133 1075,80C973,27 830,0 647,0M320,139l170,0C693,139 834,152 913,177C1024,213 1111,278 1174,372C1237,465 1269,580 1269,715C1269,857 1235,978 1166,1079C1097,1180 1002,1249 879,1286C787,1314 635,1328 424,1328l-104,0z"
   id="glyph4825" />
<glyph
   unicode="E"
   horiz-adv-x="1098"
   d="M180,1471l843,0l0,-145l-696,0l0,-460l690,0l0,-144l-690,0l0,-577l690,0l0,-145l-837,0z"
   id="glyph4827" />
<glyph
   unicode="F"
   horiz-adv-x="993"
   d="M179,1471l737,0l0,-145l-591,0l0,-460l591,0l0,-145l-591,0l0,-721l-146,0z"
   id="glyph4829" />
<glyph
   unicode="G"
   horiz-adv-x="1786"
   d="M1598,1224l-114,-108C1402,1197 1312,1258 1215,1300C1117,1341 1022,1362 929,1362C814,1362 704,1334 600,1277C495,1220 414,1144 357,1047C300,950 271,847 271,739C271,628 301,523 360,424C419,324 501,246 606,189C711,132 825,103 950,103C1101,103 1229,146 1334,231C1439,316 1501,427 1520,563l-469,0l0,142l634,0C1684,478 1616,297 1483,164C1349,30 1170,-37 946,-37C674,-37 459,56 300,241C178,384 117,549 117,736C117,875 152,1005 222,1125C292,1245 388,1339 510,1407C632,1474 770,1508 924,1508C1049,1508 1166,1486 1276,1441C1386,1396 1493,1323 1598,1224z"
   id="glyph4831" />
<glyph
   unicode="H"
   horiz-adv-x="1399"
   d="M177,1471l148,0l0,-617l748,0l0,617l148,0l0,-1471l-148,0l0,710l-748,0l0,-710l-148,0z"
   id="glyph4833" />
<glyph
   unicode="I"
   horiz-adv-x="463"
   d="M158,1471l147,0l0,-1471l-147,0z"
   id="glyph4835" />
<glyph
   unicode="J"
   horiz-adv-x="987"
   d="M660,1471l148,0l0,-993C808,325 796,219 773,160C749,100 709,52 654,17C599,-19 532,-37 453,-37C394,-37 335,-25 278,-2C220,21 156,61 86,119l78,117C241,182 304,144 355,122C388,107 421,100 453,100C495,100 533,113 568,138C602,163 626,197 640,239C653,281 660,362 660,483z"
   id="glyph4837" />
<glyph
   unicode="K"
   horiz-adv-x="1210"
   d="M179,1471l150,0l0,-552l587,552l199,0l-707,-660l762,-811l-195,0l-646,686l0,-686l-150,0z"
   id="glyph4839" />
<glyph
   unicode="L"
   horiz-adv-x="946"
   d="M179,1471l148,0l0,-1329l565,0l0,-142l-713,0z"
   id="glyph4841" />
<glyph
   unicode="M"
   horiz-adv-x="1882"
   d="M112,0l209,1471l24,0l598,-1207l592,1207l24,0l211,-1471l-145,0l-144,1052l-520,-1052l-37,0l-527,1060l-143,-1060z"
   id="glyph4843" />
<glyph
   unicode="N"
   horiz-adv-x="1515"
   d="M180,0l0,1471l32,0l978,-1126l0,1126l145,0l0,-1471l-33,0l-970,1112l0,-1112z"
   id="glyph4845" />
<glyph
   unicode="O"
   horiz-adv-x="1780"
   d="M880,1508C1103,1508 1289,1434 1439,1285C1589,1136 1664,953 1664,736C1664,521 1589,338 1440,188C1290,38 1107,-37 892,-37C674,-37 490,38 340,187C190,336 115,517 115,729C115,870 149,1001 218,1122C286,1243 379,1337 497,1406C615,1474 743,1508 880,1508M887,1364C778,1364 675,1336 578,1279C481,1222 405,1146 350,1050C295,954 268,847 268,729C268,554 329,407 450,287C571,166 716,106 887,106C1001,106 1107,134 1204,189C1301,244 1376,320 1431,416C1485,512 1512,619 1512,736C1512,853 1485,958 1431,1053C1376,1147 1300,1222 1201,1279C1102,1336 998,1364 887,1364z"
   id="glyph4847" />
<glyph
   unicode="P"
   horiz-adv-x="1212"
   d="M178,1471l293,0C639,1471 752,1464 811,1449C895,1428 964,1386 1017,1322C1070,1257 1097,1176 1097,1079C1097,981 1071,900 1019,837C967,773 895,730 804,708C737,692 613,684 430,684l-105,0l0,-684l-147,0M325,1328l0,-500l249,-3C675,825 748,834 795,853C842,871 878,901 905,942C932,983 945,1028 945,1079C945,1128 932,1174 905,1215C878,1256 843,1285 800,1302C756,1319 684,1328 585,1328z"
   id="glyph4849" />
<glyph
   unicode="Q"
   horiz-adv-x="1784"
   d="M1413,160l218,-276l-181,0l-150,190C1180,0 1045,-37 894,-37C676,-37 492,38 342,187C192,336 117,517 117,729C117,870 151,1002 220,1123C289,1244 382,1338 501,1406C619,1474 749,1508 890,1508C1108,1508 1292,1434 1442,1285C1591,1136 1666,952 1666,735C1666,622 1646,518 1605,424C1564,330 1500,242 1413,160M1322,275C1450,400 1514,553 1514,736C1514,853 1487,958 1433,1053C1378,1147 1302,1222 1203,1279C1104,1336 1000,1364 891,1364C781,1364 677,1336 580,1280C483,1223 407,1147 352,1051C297,954 270,847 270,729C270,554 330,407 451,287C572,166 717,106 888,106C1005,106 1111,134 1208,191l-328,416l179,0z"
   id="glyph4851" />
<glyph
   unicode="R"
   horiz-adv-x="1243"
   d="M187,1471l293,0C643,1471 754,1464 812,1451C899,1431 970,1388 1025,1323C1080,1257 1107,1176 1107,1080C1107,1000 1088,930 1051,869C1013,808 959,763 889,732C819,701 722,685 599,684l529,-684l-182,0l-528,684l-84,0l0,-684l-147,0M334,1327l0,-500l253,-2C685,825 758,834 805,853C852,872 888,902 915,943C941,984 954,1029 954,1080C954,1129 941,1174 914,1215C887,1255 852,1284 809,1301C766,1318 694,1327 593,1327z"
   id="glyph4853" />
<glyph
   unicode="S"
   horiz-adv-x="1020"
   d="M27,274l125,75C240,187 342,106 457,106C506,106 553,118 596,141C639,164 672,194 695,233C718,272 729,313 729,356C729,405 712,454 679,501C633,566 549,645 427,737C304,830 228,897 198,938C146,1007 120,1082 120,1163C120,1227 135,1285 166,1338C197,1391 240,1432 296,1463C351,1493 412,1508 477,1508C546,1508 611,1491 672,1457C732,1422 796,1359 863,1267l-120,-91C688,1249 641,1298 602,1321C563,1344 520,1356 474,1356C415,1356 366,1338 329,1302C291,1266 272,1222 272,1169C272,1137 279,1106 292,1076C305,1046 330,1013 365,978C384,959 448,910 555,831C682,737 770,653 817,580C864,507 888,433 888,359C888,252 848,160 767,81C686,2 587,-37 471,-37C382,-37 301,-13 228,35C155,82 88,162 27,274z"
   id="glyph4855" />
<glyph
   unicode="T"
   horiz-adv-x="872"
   d="M33,1328l0,143l807,0l0,-143l-328,0l0,-1328l-150,0l0,1328z"
   id="glyph4857" />
<glyph
   unicode="U"
   horiz-adv-x="1341"
   d="M184,1471l147,0l0,-888C331,478 333,412 337,386C344,328 361,280 388,241C415,202 456,169 511,143C566,116 622,103 678,103C727,103 773,113 818,134C863,155 900,183 930,220C960,257 982,301 996,353C1006,390 1011,467 1011,583l0,888l147,0l0,-888C1158,452 1145,346 1120,265C1094,184 1043,113 966,53C889,-7 795,-37 686,-37C567,-37 466,-9 381,48C296,105 240,180 211,273C193,330 184,434 184,583z"
   id="glyph4859" />
<glyph
   unicode="V"
   horiz-adv-x="1438"
   d="M67,1471l160,0l487,-1137l496,1137l160,0l-640,-1471l-32,0z"
   id="glyph4861" />
<glyph
   unicode="W"
   horiz-adv-x="1966"
   d="M96,1471l151,0l299,-1060l422,1060l30,0l417,-1060l305,1060l150,0l-422,-1471l-28,0l-436,1113l-445,-1113l-28,0z"
   id="glyph4863" />
<glyph
   unicode="X"
   horiz-adv-x="1247"
   d="M101,1471l172,0l352,-574l355,574l170,0l-438,-713l467,-758l-172,0l-382,617l-384,-617l-172,0l469,758z"
   id="glyph4865" />
<glyph
   unicode="Y"
   horiz-adv-x="1212"
   d="M63,1471l170,0l376,-606l370,606l170,0l-466,-768l0,-703l-145,0l0,703z"
   id="glyph4867" />
<glyph
   unicode="Z"
   horiz-adv-x="983"
   d="M122,1329l0,142l776,0l-615,-1328l584,0l0,-143l-811,0l619,1329z"
   id="glyph4869" />
<glyph
   unicode="["
   horiz-adv-x="719"
   d="M290,1508l336,0l0,-142l-196,0l0,-1627l196,0l0,-137l-336,0z"
   id="glyph4871" />
<glyph
   unicode="\"
   horiz-adv-x="1239"
   d="M220,1508l952,-1708l-153,0l-953,1708z"
   id="glyph4873" />
<glyph
   unicode="]"
   horiz-adv-x="719"
   d="M429,-398l-336,0l0,142l195,0l0,1627l-195,0l0,137l336,0z"
   id="glyph4875" />
<glyph
   unicode="^"
   horiz-adv-x="1376"
   d="M629,1471l118,0l510,-1106l-133,0l-439,952l-436,-952l-129,0z"
   id="glyph4877" />
<glyph
   unicode="_"
   horiz-adv-x="1024"
   d="M-12,-154l1048,0l0,-102l-1048,0z"
   id="glyph4879" />
<glyph
   unicode="`"
   horiz-adv-x="774"
   d="M326,1598l218,-308l-138,0l-295,308z"
   id="glyph4881" />
<glyph
   unicode="a"
   horiz-adv-x="1399"
   d="M1240,1088l0,-1088l-138,0l0,187C1043,116 978,62 905,26C832,-10 752,-28 665,-28C511,-28 380,28 271,140C162,251 107,387 107,547C107,704 162,838 272,949C382,1060 514,1116 669,1116C758,1116 839,1097 912,1059C984,1021 1047,964 1102,888l0,200M680,981C602,981 530,962 464,924C398,885 346,831 307,762C268,693 248,619 248,542C248,465 268,392 307,322C346,252 399,198 466,159C532,120 603,100 679,100C756,100 828,119 897,158C966,197 1019,249 1056,315C1093,381 1111,455 1111,538C1111,664 1070,769 987,854C904,939 801,981 680,981z"
   id="glyph4883" />
<glyph
   unicode="b"
   horiz-adv-x="1397"
   d="M165,0l0,1508l139,0l0,-607C363,973 428,1027 501,1063C574,1098 653,1116 740,1116C894,1116 1026,1060 1135,949C1244,837 1298,701 1298,542C1298,385 1243,250 1133,139C1023,28 891,-28 736,-28C647,-28 567,-9 495,29C423,67 359,124 304,200l0,-200M725,107C803,107 875,126 941,165C1007,203 1060,257 1099,326C1138,395 1157,469 1157,546C1157,623 1137,697 1098,767C1059,837 1006,892 940,931C873,970 802,989 727,989C650,989 578,970 509,931C440,892 387,839 350,773C313,707 294,633 294,550C294,424 336,319 419,234C502,149 604,107 725,107z"
   id="glyph4885" />
<glyph
   unicode="c"
   horiz-adv-x="1325"
   d="M1212,862l-111,-69C1005,920 874,984 708,984C575,984 465,941 378,856C290,771 246,667 246,545C246,466 266,391 307,321C347,251 402,197 473,158C543,119 622,100 709,100C869,100 1000,164 1101,291l111,-73C1160,140 1090,80 1003,37C915,-6 815,-28 703,-28C531,-28 388,27 275,136C162,245 105,378 105,535C105,640 132,738 185,829C238,919 310,989 403,1040C496,1091 599,1116 714,1116C786,1116 856,1105 923,1083C990,1061 1046,1032 1093,997C1140,962 1179,917 1212,862z"
   id="glyph4887" />
<glyph
   unicode="d"
   horiz-adv-x="1403"
   d="M1242,1508l0,-1508l-138,0l0,187C1045,116 980,62 907,26C834,-10 754,-28 667,-28C513,-28 382,28 273,140C164,251 109,387 109,547C109,704 164,838 274,949C384,1060 516,1116 671,1116C760,1116 841,1097 914,1059C986,1021 1049,964 1104,888l0,620M682,981C604,981 532,962 466,924C400,885 348,831 309,762C270,693 250,619 250,542C250,465 270,392 309,322C348,252 401,198 468,159C534,120 605,100 681,100C758,100 830,119 899,158C968,197 1021,249 1058,315C1095,381 1113,455 1113,538C1113,664 1072,769 989,854C906,939 803,981 682,981z"
   id="glyph4889" />
<glyph
   unicode="e"
   horiz-adv-x="1331"
   d="M1072,361l118,-62C1151,223 1107,162 1056,115C1005,68 948,33 885,9C822,-16 750,-28 670,-28C493,-28 354,30 254,147C154,263 104,394 104,541C104,679 146,802 231,910C338,1047 482,1116 662,1116C847,1116 995,1046 1106,905C1185,806 1225,682 1226,533l-978,0C251,406 291,303 369,222C447,141 543,100 658,100C713,100 767,110 820,129C872,148 916,174 953,206C990,238 1029,290 1072,361M1072,654C1053,729 1026,788 991,833C955,878 908,914 849,941C790,968 729,982 664,982C557,982 466,948 389,879C333,829 291,754 262,654z"
   id="glyph4891" />
<glyph
   unicode="f"
   horiz-adv-x="643"
   d="M604,1508l0,-137C553,1393 509,1404 472,1404C445,1404 422,1399 404,1388C386,1377 375,1364 370,1350C365,1335 363,1297 363,1235l0,-147l227,0l0,-120l-228,0l0,-968l-140,0l0,968l-143,0l0,120l143,0l0,170C222,1336 229,1392 244,1425C258,1458 282,1485 317,1506C351,1526 392,1536 441,1536C486,1536 541,1527 604,1508z"
   id="glyph4893" />
<glyph
   unicode="g"
   horiz-adv-x="1378"
   d="M1093,1088l141,0l0,-867C1234,68 1221,-43 1194,-114C1157,-214 1094,-291 1003,-345C912,-399 803,-426 676,-426C583,-426 499,-413 425,-386C350,-360 290,-325 243,-280C196,-236 153,-171 114,-86l152,0C307,-158 361,-211 426,-246C491,-281 572,-298 669,-298C764,-298 845,-280 911,-244C976,-209 1023,-164 1051,-110C1079,-56 1093,31 1093,151l0,56C1040,140 976,89 900,54C824,18 743,0 658,0C558,0 464,25 376,75C288,124 220,191 172,275C124,359 100,451 100,552C100,653 125,747 175,834C225,921 294,989 383,1040C471,1091 564,1116 662,1116C743,1116 819,1099 890,1066C960,1032 1028,976 1093,899M680,981C601,981 527,962 459,924C391,885 338,832 299,765C260,697 241,624 241,545C241,426 281,327 361,249C441,171 545,132 672,132C801,132 904,171 983,248C1061,325 1100,427 1100,553C1100,635 1082,708 1046,773C1010,837 959,888 893,925C827,962 756,981 680,981z"
   id="glyph4895" />
<glyph
   unicode="h"
   horiz-adv-x="1249"
   d="M156,1508l140,0l0,-615C353,968 415,1024 483,1061C551,1098 625,1116 704,1116C785,1116 858,1095 921,1054C984,1013 1030,957 1060,888C1090,818 1105,709 1105,560l0,-560l-140,0l0,519C965,644 960,728 950,770C933,842 901,896 856,933C810,969 750,987 676,987C591,987 516,959 449,903C382,847 337,778 316,695C303,642 296,543 296,399l0,-399l-140,0z"
   id="glyph4897" />
<glyph
   unicode="i"
   horiz-adv-x="410"
   d="M205,1536C237,1536 264,1525 287,1502C310,1479 321,1452 321,1420C321,1389 310,1362 287,1339C264,1316 237,1305 205,1305C174,1305 147,1316 124,1339C101,1362 90,1389 90,1420C90,1452 101,1479 124,1502C147,1525 174,1536 205,1536M135,1088l141,0l0,-1088l-141,0z"
   id="glyph4899" />
<glyph
   unicode="j"
   horiz-adv-x="416"
   d="M208,1536C240,1536 267,1525 290,1502C312,1479 323,1452 323,1420C323,1389 312,1362 290,1339C267,1316 240,1305 208,1305C176,1305 149,1316 127,1339C104,1362 93,1389 93,1420C93,1452 104,1479 127,1502C149,1525 176,1536 208,1536M139,1088l142,0l0,-1252C281,-255 265,-322 232,-363C199,-405 153,-426 96,-426C49,-426 -5,-415 -64,-392l0,126C-27,-285 7,-295 37,-295C75,-295 103,-279 122,-248C133,-228 139,-186 139,-123z"
   id="glyph4901" />
<glyph
   unicode="k"
   horiz-adv-x="1028"
   d="M155,1508l141,0l0,-858l503,438l206,0l-597,-519l632,-569l-198,0l-546,489l0,-489l-141,0z"
   id="glyph4903" />
<glyph
   unicode="l"
   horiz-adv-x="410"
   d="M135,1508l140,0l0,-1508l-140,0z"
   id="glyph4905" />
<glyph
   unicode="m"
   horiz-adv-x="1921"
   d="M155,1088l139,0l0,-188C343,969 393,1020 444,1052C515,1095 589,1116 667,1116C720,1116 770,1106 817,1085C864,1064 903,1037 933,1003C963,968 989,919 1011,855C1058,940 1116,1005 1186,1050C1256,1094 1331,1116 1412,1116C1487,1116 1554,1097 1612,1059C1669,1021 1712,968 1740,900C1768,832 1782,730 1782,594l0,-594l-143,0l0,594C1639,711 1631,791 1614,835C1597,878 1569,913 1529,940C1488,967 1440,980 1384,980C1316,980 1254,960 1198,920C1141,880 1100,827 1074,760C1048,693 1035,582 1035,426l0,-426l-139,0l0,557C896,688 888,778 872,825C855,872 827,909 786,938C745,966 697,980 641,980C576,980 516,961 460,922C403,883 362,830 335,764C308,698 294,597 294,461l0,-461l-139,0z"
   id="glyph4907" />
<glyph
   unicode="n"
   horiz-adv-x="1249"
   d="M156,1088l140,0l0,-195C352,968 414,1024 482,1061C550,1098 624,1116 704,1116C785,1116 858,1095 921,1054C984,1013 1030,957 1060,887C1090,817 1105,708 1105,560l0,-560l-139,0l0,519C966,644 961,728 950,770C933,842 902,896 856,933C810,969 750,987 676,987C591,987 516,959 449,903C382,847 337,778 316,695C303,641 296,542 296,399l0,-399l-140,0z"
   id="glyph4909" />
<glyph
   unicode="o"
   horiz-adv-x="1341"
   d="M671,1116C838,1116 977,1055 1087,934C1187,823 1237,692 1237,541C1237,389 1184,256 1079,143C973,29 837,-28 671,-28C504,-28 368,29 263,143C157,256 104,389 104,541C104,692 154,822 254,933C364,1055 503,1116 671,1116M671,979C555,979 455,936 372,850C289,764 247,660 247,538C247,459 266,386 304,318C342,250 393,198 458,161C523,124 594,105 671,105C748,105 819,124 884,161C949,198 1000,250 1038,318C1076,386 1095,459 1095,538C1095,660 1053,764 970,850C886,936 786,979 671,979z"
   id="glyph4911" />
<glyph
   unicode="p"
   horiz-adv-x="1397"
   d="M158,1088l139,0l0,-200C352,964 416,1021 488,1059C560,1097 640,1116 729,1116C884,1116 1016,1060 1126,949C1236,838 1291,704 1291,547C1291,387 1237,251 1128,140C1019,28 887,-28 733,-28C646,-28 567,-10 494,26C421,62 356,116 297,187l0,-585l-139,0M718,981C597,981 495,939 412,854C329,769 287,664 287,538C287,455 306,381 343,315C380,249 433,197 502,158C571,119 643,100 720,100C795,100 866,120 933,159C999,198 1052,252 1091,322C1130,392 1150,465 1150,542C1150,619 1131,693 1092,762C1053,831 1000,885 934,924C868,962 796,981 718,981z"
   id="glyph4913" />
<glyph
   unicode="q"
   horiz-adv-x="1397"
   d="M1239,1088l0,-1486l-138,0l0,585C1042,116 977,62 904,26C831,-10 751,-28 664,-28C510,-28 379,28 270,140C161,251 106,387 106,547C106,704 161,838 271,949C381,1060 513,1116 668,1116C757,1116 838,1097 911,1059C983,1021 1046,964 1101,888l0,200M679,981C601,981 529,962 463,924C397,885 345,831 306,762C267,693 247,619 247,542C247,465 267,392 306,322C345,252 398,198 465,159C531,120 602,100 678,100C755,100 827,119 896,158C965,197 1018,249 1055,315C1092,381 1110,455 1110,538C1110,664 1069,769 986,854C903,939 800,981 679,981z"
   id="glyph4915" />
<glyph
   unicode="r"
   horiz-adv-x="616"
   d="M103,1088l143,0l0,-159C289,992 334,1039 381,1070C428,1101 478,1116 529,1116C568,1116 609,1104 653,1079l-73,-118C551,974 526,980 506,980C459,980 414,961 371,923C328,884 295,825 272,744C255,682 246,557 246,368l0,-368l-143,0z"
   id="glyph4917" />
<glyph
   unicode="s"
   horiz-adv-x="795"
   d="M703,969l-90,-93C538,949 465,985 394,985C349,985 310,970 278,940C245,910 229,875 229,835C229,800 242,766 269,734C296,701 352,663 437,619C541,565 612,513 649,463C686,412 704,355 704,292C704,203 673,127 610,65C547,3 469,-28 375,-28C312,-28 253,-14 196,13C139,40 91,78 54,126l88,100C213,145 289,105 369,105C425,105 473,123 512,159C551,195 571,237 571,286C571,326 558,362 532,393C506,424 447,462 356,509C258,560 191,610 156,659C121,708 103,765 103,828C103,911 131,979 188,1034C244,1089 315,1116 401,1116C501,1116 602,1067 703,969z"
   id="glyph4919" />
<glyph
   unicode="t"
   horiz-adv-x="694"
   d="M278,1492l141,0l0,-404l222,0l0,-120l-222,0l0,-968l-141,0l0,968l-191,0l0,120l191,0z"
   id="glyph4921" />
<glyph
   unicode="u"
   horiz-adv-x="1245"
   d="M138,1088l141,0l0,-508C279,456 286,371 299,324C319,257 357,205 414,166C470,127 537,108 615,108C693,108 759,127 814,165C868,202 905,252 926,313C940,355 947,444 947,580l0,508l143,0l0,-534C1090,404 1073,291 1038,215C1003,139 950,80 880,37C809,-6 721,-28 615,-28C509,-28 421,-6 350,37C279,80 226,140 191,217C156,294 138,409 138,564z"
   id="glyph4923" />
<glyph
   unicode="v"
   horiz-adv-x="1135"
   d="M53,1088l149,0l364,-792l361,792l150,0l-498,-1088l-25,0z"
   id="glyph4925" />
<glyph
   unicode="w"
   horiz-adv-x="1702"
   d="M9,1088l144,0l333,-790l349,790l25,0l348,-790l339,790l146,0l-472,-1088l-27,0l-346,779l-349,-779l-26,0z"
   id="glyph4927" />
<glyph
   unicode="x"
   horiz-adv-x="983"
   d="M32,1088l168,0l288,-403l288,403l168,0l-372,-517l419,-571l-170,0l-333,457l-328,-457l-167,0l412,571z"
   id="glyph4929" />
<glyph
   unicode="y"
   horiz-adv-x="1098"
   d="M39,1088l148,0l374,-838l363,838l149,0l-649,-1486l-148,0l210,480z"
   id="glyph4931" />
<glyph
   unicode="z"
   horiz-adv-x="870"
   d="M67,1088l799,0l-616,-964l596,0l0,-124l-837,0l616,965l-558,0z"
   id="glyph4933" />
<glyph
   unicode="{"
   horiz-adv-x="719"
   d="M75,591C116,592 149,600 174,615C207,634 232,661 249,695C266,729 276,777 279,839C280,870 282,940 283,1050C284,1160 291,1239 304,1286C317,1333 338,1371 366,1399C394,1427 430,1447 473,1460C499,1467 541,1471 598,1471l56,0l0,-157l-31,0C553,1314 507,1301 485,1276C462,1250 451,1194 451,1108C451,953 449,854 444,811C435,729 416,666 386,623C355,579 307,541 242,510C315,479 369,432 402,369C435,306 451,202 451,59C451,-69 452,-145 455,-168C459,-204 467,-232 480,-251C489,-264 504,-275 525,-282C545,-290 588,-294 654,-294l0,-157l-56,0C531,-451 483,-445 452,-434C407,-417 372,-390 345,-353C318,-316 300,-267 292,-205C286,-161 283,-79 282,41C281,164 275,247 262,290C249,333 226,367 195,391C164,414 124,427 75,428z"
   id="glyph4935" />
<glyph
   unicode="|"
   horiz-adv-x="1376"
   d="M616,1508l143,0l0,-1906l-143,0z"
   id="glyph4937" />
<glyph
   unicode="}"
   horiz-adv-x="719"
   d="M644,591l0,-163C603,427 570,420 545,405C512,386 488,359 471,325C454,291 443,243 440,181C439,150 438,80 437,-30C436,-141 428,-219 415,-266C402,-313 381,-351 353,-379C325,-408 289,-428 246,-440C220,-447 178,-451 121,-451l-56,0l0,157l31,0C166,-294 212,-281 235,-256C257,-231 268,-175 268,-89C268,70 271,172 276,215C285,296 307,359 340,404C373,449 418,485 477,510C399,547 345,597 314,658C283,719 268,819 268,960C268,1107 265,1194 259,1219C252,1253 238,1277 217,1292C196,1307 155,1314 96,1314l-31,0l0,157l56,0C188,1471 236,1465 267,1453C312,1437 348,1410 375,1373C402,1336 419,1286 427,1225C433,1181 436,1099 437,979C438,856 445,773 458,730C471,686 493,652 524,629C555,605 595,592 644,591z"
   id="glyph4939" />
<glyph
   unicode="~"
   horiz-adv-x="1241"
   d="M1128,837l0,-162C1053,633 1000,607 968,596C935,585 905,579 876,579C813,579 724,605 611,656C523,696 467,720 443,728C418,735 395,739 374,739C345,739 312,733 277,720C242,707 187,679 112,634l0,160C185,835 238,862 271,873C304,884 335,890 366,890C431,890 520,863 634,809C713,772 767,749 796,740C825,731 851,726 874,726C902,726 930,732 959,743C988,754 1044,785 1128,837z"
   id="glyph4941" />
<glyph
   unicode="Ä"
   horiz-adv-x="1515"
   d="M780,1471l686,-1471l-158,0l-231,484l-634,0l-230,-484l-164,0l695,1471M762,1159l-253,-533l503,0M554,1816C586,1816 613,1805 636,1782C659,1759 670,1732 670,1700C670,1668 659,1641 636,1618C613,1595 586,1584 554,1584C522,1584 495,1595 472,1618C449,1641 438,1668 438,1700C438,1732 449,1759 472,1782C495,1805 522,1816 554,1816M962,1816C994,1816 1021,1805 1044,1782C1067,1759 1078,1732 1078,1700C1078,1668 1067,1641 1044,1618C1021,1595 994,1584 962,1584C930,1584 903,1595 880,1618C857,1641 846,1668 846,1700C846,1732 857,1759 880,1782C903,1805 930,1816 962,1816z"
   id="glyph4943" />
<glyph
   unicode="Å"
   horiz-adv-x="1515"
   d="M780,1471l686,-1471l-158,0l-231,484l-634,0l-230,-484l-164,0l695,1471M762,1159l-253,-533l503,0M757,1989C816,1989 866,1968 908,1927C949,1885 970,1834 970,1775C970,1716 949,1666 908,1625C867,1583 816,1562 757,1562C698,1562 648,1583 607,1625C565,1666 544,1716 544,1775C544,1834 565,1885 607,1927C648,1968 698,1989 757,1989M756,1888C725,1888 699,1877 678,1856C657,1834 646,1808 646,1778C646,1748 657,1722 678,1701C699,1679 725,1668 756,1668C786,1668 812,1679 833,1701C854,1722 865,1748 865,1778C865,1808 854,1834 833,1856C812,1877 786,1888 756,1888z"
   id="glyph4945" />
<glyph
   unicode="Ç"
   horiz-adv-x="1665"
   d="M1549,1198l-116,-89C1369,1192 1292,1256 1203,1299C1113,1342 1014,1363 907,1363C790,1363 681,1335 581,1279C481,1222 404,1147 349,1052C294,957 266,850 266,731C266,552 328,402 451,282C574,162 729,102 916,102C1122,102 1294,183 1433,344l116,-88C1476,163 1384,91 1275,40C1165,-11 1042,-37 907,-37C650,-37 447,49 298,220C173,365 111,539 111,744C111,959 187,1141 338,1288C489,1435 678,1508 905,1508C1042,1508 1166,1481 1277,1427C1388,1372 1478,1296 1549,1198M811,0l88,0l-17,-118C897,-116 910,-115 920,-115C953,-115 980,-125 1002,-145C1024,-166 1035,-191 1035,-222C1035,-266 1015,-303 975,-334C935,-365 879,-380 806,-380C747,-380 691,-370 639,-350l22,69C704,-294 744,-301 781,-301C831,-301 866,-295 886,-282C906,-270 916,-255 916,-236C916,-225 911,-215 900,-206C889,-197 873,-193 854,-193C838,-193 815,-196 784,-202z"
   id="glyph4947" />
<glyph
   unicode="É"
   horiz-adv-x="1098"
   d="M180,1471l843,0l0,-145l-696,0l0,-460l690,0l0,-144l-690,0l0,-577l690,0l0,-145l-837,0M677,1895l215,0l-295,-308l-138,0z"
   id="glyph4949" />
<glyph
   unicode="Ñ"
   horiz-adv-x="1515"
   d="M180,0l0,1471l32,0l978,-1126l0,1126l145,0l0,-1471l-33,0l-970,1112l0,-1112M1054,1789l70,-97C1076,1657 1036,1634 1003,1622C970,1610 935,1604 898,1604C850,1604 801,1616 750,1641C707,1662 679,1675 667,1678C651,1683 634,1685 615,1685C592,1685 570,1681 549,1673C528,1664 497,1645 457,1616l-66,102C452,1783 527,1815 616,1815C659,1815 710,1802 769,1775C826,1749 870,1736 903,1736C940,1736 990,1754 1054,1789z"
   id="glyph4951" />
<glyph
   unicode="Ö"
   horiz-adv-x="1780"
   d="M880,1508C1103,1508 1289,1434 1439,1285C1589,1136 1664,953 1664,736C1664,521 1589,338 1440,188C1290,38 1107,-37 892,-37C674,-37 490,38 340,187C190,336 115,517 115,729C115,870 149,1001 218,1122C286,1243 379,1337 497,1406C615,1474 743,1508 880,1508M887,1364C778,1364 675,1336 578,1279C481,1222 405,1146 350,1050C295,954 268,847 268,729C268,554 329,407 450,287C571,166 716,106 887,106C1001,106 1107,134 1204,189C1301,244 1376,320 1431,416C1485,512 1512,619 1512,736C1512,853 1485,958 1431,1053C1376,1147 1300,1222 1201,1279C1102,1336 998,1364 887,1364M686,1816C718,1816 745,1805 768,1782C791,1759 802,1732 802,1700C802,1668 791,1641 768,1618C745,1595 718,1584 686,1584C654,1584 627,1595 604,1618C581,1641 570,1668 570,1700C570,1732 581,1759 604,1782C627,1805 654,1816 686,1816M1094,1816C1126,1816 1153,1805 1176,1782C1199,1759 1210,1732 1210,1700C1210,1668 1199,1641 1176,1618C1153,1595 1126,1584 1094,1584C1062,1584 1035,1595 1012,1618C989,1641 978,1668 978,1700C978,1732 989,1759 1012,1782C1035,1805 1062,1816 1094,1816z"
   id="glyph4953" />
<glyph
   unicode="Ü"
   horiz-adv-x="1341"
   d="M184,1471l147,0l0,-888C331,478 333,412 337,386C344,328 361,280 388,241C415,202 456,169 511,143C566,116 622,103 678,103C727,103 773,113 818,134C863,155 900,183 930,220C960,257 982,301 996,353C1006,390 1011,467 1011,583l0,888l147,0l0,-888C1158,452 1145,346 1120,265C1094,184 1043,113 966,53C889,-7 795,-37 686,-37C567,-37 466,-9 381,48C296,105 240,180 211,273C193,330 184,434 184,583M467,1816C499,1816 526,1805 549,1782C572,1759 583,1732 583,1700C583,1668 572,1641 549,1618C526,1595 499,1584 467,1584C435,1584 408,1595 385,1618C362,1641 351,1668 351,1700C351,1732 362,1759 385,1782C408,1805 435,1816 467,1816M875,1816C907,1816 934,1805 957,1782C980,1759 991,1732 991,1700C991,1668 980,1641 957,1618C934,1595 907,1584 875,1584C843,1584 816,1595 793,1618C770,1641 759,1668 759,1700C759,1732 770,1759 793,1782C816,1805 843,1816 875,1816z"
   id="glyph4955" />
<glyph
   unicode="á"
   horiz-adv-x="1399"
   d="M1240,1088l0,-1088l-138,0l0,187C1043,116 978,62 905,26C832,-10 752,-28 665,-28C511,-28 380,28 271,140C162,251 107,387 107,547C107,704 162,838 272,949C382,1060 514,1116 669,1116C758,1116 839,1097 912,1059C984,1021 1047,964 1102,888l0,200M680,981C602,981 530,962 464,924C398,885 346,831 307,762C268,693 248,619 248,542C248,465 268,392 307,322C346,252 399,198 466,159C532,120 603,100 679,100C756,100 828,119 897,158C966,197 1019,249 1056,315C1093,381 1111,455 1111,538C1111,664 1070,769 987,854C904,939 801,981 680,981M767,1598l215,0l-295,-308l-138,0z"
   id="glyph4957" />
<glyph
   unicode="à"
   horiz-adv-x="1399"
   d="M1240,1088l0,-1088l-138,0l0,187C1043,116 978,62 905,26C832,-10 752,-28 665,-28C511,-28 380,28 271,140C162,251 107,387 107,547C107,704 162,838 272,949C382,1060 514,1116 669,1116C758,1116 839,1097 912,1059C984,1021 1047,964 1102,888l0,200M680,981C602,981 530,962 464,924C398,885 346,831 307,762C268,693 248,619 248,542C248,465 268,392 307,322C346,252 399,198 466,159C532,120 603,100 679,100C756,100 828,119 897,158C966,197 1019,249 1056,315C1093,381 1111,455 1111,538C1111,664 1070,769 987,854C904,939 801,981 680,981M639,1598l218,-308l-138,0l-295,308z"
   id="glyph4959" />
<glyph
   unicode="â"
   horiz-adv-x="1399"
   d="M1240,1088l0,-1088l-138,0l0,187C1043,116 978,62 905,26C832,-10 752,-28 665,-28C511,-28 380,28 271,140C162,251 107,387 107,547C107,704 162,838 272,949C382,1060 514,1116 669,1116C758,1116 839,1097 912,1059C984,1021 1047,964 1102,888l0,200M680,981C602,981 530,962 464,924C398,885 346,831 307,762C268,693 248,619 248,542C248,465 268,392 307,322C346,252 399,198 466,159C532,120 603,100 679,100C756,100 828,119 897,158C966,197 1019,249 1056,315C1093,381 1111,455 1111,538C1111,664 1070,769 987,854C904,939 801,981 680,981M633,1542l139,0l290,-257l-180,0l-176,152l-184,-152l-186,0z"
   id="glyph4961" />
<glyph
   unicode="ä"
   horiz-adv-x="1399"
   d="M1240,1088l0,-1088l-138,0l0,187C1043,116 978,62 905,26C832,-10 752,-28 665,-28C511,-28 380,28 271,140C162,251 107,387 107,547C107,704 162,838 272,949C382,1060 514,1116 669,1116C758,1116 839,1097 912,1059C984,1021 1047,964 1102,888l0,200M680,981C602,981 530,962 464,924C398,885 346,831 307,762C268,693 248,619 248,542C248,465 268,392 307,322C346,252 399,198 466,159C532,120 603,100 679,100C756,100 828,119 897,158C966,197 1019,249 1056,315C1093,381 1111,455 1111,538C1111,664 1070,769 987,854C904,939 801,981 680,981M496,1518C528,1518 555,1507 578,1484C601,1461 612,1434 612,1402C612,1370 601,1343 578,1320C555,1297 528,1286 496,1286C464,1286 437,1297 414,1320C391,1343 380,1370 380,1402C380,1434 391,1461 414,1484C437,1507 464,1518 496,1518M904,1518C936,1518 963,1507 986,1484C1009,1461 1020,1434 1020,1402C1020,1370 1009,1343 986,1320C963,1297 936,1286 904,1286C872,1286 845,1297 822,1320C799,1343 788,1370 788,1402C788,1434 799,1461 822,1484C845,1507 872,1518 904,1518z"
   id="glyph4963" />
<glyph
   unicode="ã"
   horiz-adv-x="1399"
   d="M1240,1088l0,-1088l-138,0l0,187C1043,116 978,62 905,26C832,-10 752,-28 665,-28C511,-28 380,28 271,140C162,251 107,387 107,547C107,704 162,838 272,949C382,1060 514,1116 669,1116C758,1116 839,1097 912,1059C984,1021 1047,964 1102,888l0,200M680,981C602,981 530,962 464,924C398,885 346,831 307,762C268,693 248,619 248,542C248,465 268,392 307,322C346,252 399,198 466,159C532,120 603,100 679,100C756,100 828,119 897,158C966,197 1019,249 1056,315C1093,381 1111,455 1111,538C1111,664 1070,769 987,854C904,939 801,981 680,981M996,1492l70,-97C1018,1360 978,1337 945,1325C912,1313 877,1307 840,1307C792,1307 743,1319 692,1344C649,1365 621,1378 609,1381C593,1386 576,1388 557,1388C534,1388 512,1384 491,1376C470,1367 439,1348 399,1319l-66,102C394,1486 469,1518 558,1518C601,1518 652,1505 711,1478C768,1452 812,1439 845,1439C882,1439 932,1457 996,1492z"
   id="glyph4965" />
<glyph
   unicode="å"
   horiz-adv-x="1399"
   d="M1240,1088l0,-1088l-138,0l0,187C1043,116 978,62 905,26C832,-10 752,-28 665,-28C511,-28 380,28 271,140C162,251 107,387 107,547C107,704 162,838 272,949C382,1060 514,1116 669,1116C758,1116 839,1097 912,1059C984,1021 1047,964 1102,888l0,200M680,981C602,981 530,962 464,924C398,885 346,831 307,762C268,693 248,619 248,542C248,465 268,392 307,322C346,252 399,198 466,159C532,120 603,100 679,100C756,100 828,119 897,158C966,197 1019,249 1056,315C1093,381 1111,455 1111,538C1111,664 1070,769 987,854C904,939 801,981 680,981M699,1691C758,1691 808,1670 850,1629C891,1587 912,1536 912,1477C912,1418 891,1368 850,1327C809,1285 758,1264 699,1264C640,1264 590,1285 549,1327C507,1368 486,1418 486,1477C486,1536 507,1587 549,1629C590,1670 640,1691 699,1691M698,1590C667,1590 641,1579 620,1558C599,1536 588,1510 588,1480C588,1450 599,1424 620,1403C641,1381 667,1370 698,1370C728,1370 754,1381 775,1403C796,1424 807,1450 807,1480C807,1510 796,1536 775,1558C754,1579 728,1590 698,1590z"
   id="glyph4967" />
<glyph
   unicode="ç"
   horiz-adv-x="1325"
   d="M1212,862l-111,-69C1005,920 874,984 708,984C575,984 465,941 378,856C290,771 246,667 246,545C246,466 266,391 307,321C347,251 402,197 473,158C543,119 622,100 709,100C869,100 1000,164 1101,291l111,-73C1160,140 1090,80 1003,37C915,-6 815,-28 703,-28C531,-28 388,27 275,136C162,245 105,378 105,535C105,640 132,738 185,829C238,919 310,989 403,1040C496,1091 599,1116 714,1116C786,1116 856,1105 923,1083C990,1061 1046,1032 1093,997C1140,962 1179,917 1212,862M642,0l88,0l-17,-118C728,-116 741,-115 751,-115C784,-115 811,-125 833,-145C855,-166 866,-191 866,-222C866,-266 846,-303 806,-334C766,-365 710,-380 637,-380C578,-380 522,-370 470,-350l22,69C535,-294 575,-301 612,-301C662,-301 697,-295 717,-282C737,-270 747,-255 747,-236C747,-225 742,-215 731,-206C720,-197 704,-193 685,-193C669,-193 646,-196 615,-202z"
   id="glyph4969" />
<glyph
   unicode="é"
   horiz-adv-x="1331"
   d="M1072,361l118,-62C1151,223 1107,162 1056,115C1005,68 948,33 885,9C822,-16 750,-28 670,-28C493,-28 354,30 254,147C154,263 104,394 104,541C104,679 146,802 231,910C338,1047 482,1116 662,1116C847,1116 995,1046 1106,905C1185,806 1225,682 1226,533l-978,0C251,406 291,303 369,222C447,141 543,100 658,100C713,100 767,110 820,129C872,148 916,174 953,206C990,238 1029,290 1072,361M1072,654C1053,729 1026,788 991,833C955,878 908,914 849,941C790,968 729,982 664,982C557,982 466,948 389,879C333,829 291,754 262,654M734,1598l215,0l-295,-308l-138,0z"
   id="glyph4971" />
<glyph
   unicode="è"
   horiz-adv-x="1331"
   d="M1072,361l118,-62C1151,223 1107,162 1056,115C1005,68 948,33 885,9C822,-16 750,-28 670,-28C493,-28 354,30 254,147C154,263 104,394 104,541C104,679 146,802 231,910C338,1047 482,1116 662,1116C847,1116 995,1046 1106,905C1185,806 1225,682 1226,533l-978,0C251,406 291,303 369,222C447,141 543,100 658,100C713,100 767,110 820,129C872,148 916,174 953,206C990,238 1029,290 1072,361M1072,654C1053,729 1026,788 991,833C955,878 908,914 849,941C790,968 729,982 664,982C557,982 466,948 389,879C333,829 291,754 262,654M605,1598l218,-308l-138,0l-295,308z"
   id="glyph4973" />
<glyph
   unicode="ê"
   horiz-adv-x="1331"
   d="M1072,361l118,-62C1151,223 1107,162 1056,115C1005,68 948,33 885,9C822,-16 750,-28 670,-28C493,-28 354,30 254,147C154,263 104,394 104,541C104,679 146,802 231,910C338,1047 482,1116 662,1116C847,1116 995,1046 1106,905C1185,806 1225,682 1226,533l-978,0C251,406 291,303 369,222C447,141 543,100 658,100C713,100 767,110 820,129C872,148 916,174 953,206C990,238 1029,290 1072,361M1072,654C1053,729 1026,788 991,833C955,878 908,914 849,941C790,968 729,982 664,982C557,982 466,948 389,879C333,829 291,754 262,654M600,1542l139,0l290,-257l-180,0l-176,152l-184,-152l-186,0z"
   id="glyph4975" />
<glyph
   unicode="ë"
   horiz-adv-x="1331"
   d="M1072,361l118,-62C1151,223 1107,162 1056,115C1005,68 948,33 885,9C822,-16 750,-28 670,-28C493,-28 354,30 254,147C154,263 104,394 104,541C104,679 146,802 231,910C338,1047 482,1116 662,1116C847,1116 995,1046 1106,905C1185,806 1225,682 1226,533l-978,0C251,406 291,303 369,222C447,141 543,100 658,100C713,100 767,110 820,129C872,148 916,174 953,206C990,238 1029,290 1072,361M1072,654C1053,729 1026,788 991,833C955,878 908,914 849,941C790,968 729,982 664,982C557,982 466,948 389,879C333,829 291,754 262,654M462,1518C494,1518 521,1507 544,1484C567,1461 578,1434 578,1402C578,1370 567,1343 544,1320C521,1297 494,1286 462,1286C430,1286 403,1297 380,1320C357,1343 346,1370 346,1402C346,1434 357,1461 380,1484C403,1507 430,1518 462,1518M870,1518C902,1518 929,1507 952,1484C975,1461 986,1434 986,1402C986,1370 975,1343 952,1320C929,1297 902,1286 870,1286C838,1286 811,1297 788,1320C765,1343 754,1370 754,1402C754,1434 765,1461 788,1484C811,1507 838,1518 870,1518z"
   id="glyph4977" />
<glyph
   unicode="í"
   horiz-adv-x="410"
   d="M135,1088l141,0l0,-1088l-141,0M273,1598l215,0l-295,-308l-138,0z"
   id="glyph4979" />
<glyph
   unicode="ì"
   horiz-adv-x="410"
   d="M135,1088l141,0l0,-1088l-141,0M144,1598l218,-308l-138,0l-295,308z"
   id="glyph4981" />
<glyph
   unicode="î"
   horiz-adv-x="410"
   d="M135,1088l141,0l0,-1088l-141,0M139,1542l139,0l290,-257l-180,0l-176,152l-184,-152l-186,0z"
   id="glyph4983" />
<glyph
   unicode="ï"
   horiz-adv-x="410"
   d="M135,1088l141,0l0,-1088l-141,0M1,1518C33,1518 60,1507 83,1484C106,1461 117,1434 117,1402C117,1370 106,1343 83,1320C60,1297 33,1286 1,1286C-31,1286 -58,1297 -81,1320C-104,1343 -115,1370 -115,1402C-115,1434 -104,1461 -81,1484C-58,1507 -31,1518 1,1518M409,1518C441,1518 468,1507 491,1484C514,1461 525,1434 525,1402C525,1370 514,1343 491,1320C468,1297 441,1286 409,1286C377,1286 350,1297 327,1320C304,1343 293,1370 293,1402C293,1434 304,1461 327,1484C350,1507 377,1518 409,1518z"
   id="glyph4985" />
<glyph
   unicode="ñ"
   horiz-adv-x="1249"
   d="M156,1088l140,0l0,-195C352,968 414,1024 482,1061C550,1098 624,1116 704,1116C785,1116 858,1095 921,1054C984,1013 1030,957 1060,887C1090,817 1105,708 1105,560l0,-560l-139,0l0,519C966,644 961,728 950,770C933,842 902,896 856,933C810,969 750,987 676,987C591,987 516,959 449,903C382,847 337,778 316,695C303,641 296,542 296,399l0,-399l-140,0M921,1492l70,-97C943,1360 903,1337 870,1325C837,1313 802,1307 765,1307C717,1307 668,1319 617,1344C574,1365 546,1378 534,1381C518,1386 501,1388 482,1388C459,1388 437,1384 416,1376C395,1367 364,1348 324,1319l-66,102C319,1486 394,1518 483,1518C526,1518 577,1505 636,1478C693,1452 737,1439 770,1439C807,1439 857,1457 921,1492z"
   id="glyph4987" />
<glyph
   unicode="ó"
   horiz-adv-x="1341"
   d="M671,1116C838,1116 977,1055 1087,934C1187,823 1237,692 1237,541C1237,389 1184,256 1079,143C973,29 837,-28 671,-28C504,-28 368,29 263,143C157,256 104,389 104,541C104,692 154,822 254,933C364,1055 503,1116 671,1116M671,979C555,979 455,936 372,850C289,764 247,660 247,538C247,459 266,386 304,318C342,250 393,198 458,161C523,124 594,105 671,105C748,105 819,124 884,161C949,198 1000,250 1038,318C1076,386 1095,459 1095,538C1095,660 1053,764 970,850C886,936 786,979 671,979M739,1598l215,0l-295,-308l-138,0z"
   id="glyph4989" />
<glyph
   unicode="ò"
   horiz-adv-x="1341"
   d="M671,1116C838,1116 977,1055 1087,934C1187,823 1237,692 1237,541C1237,389 1184,256 1079,143C973,29 837,-28 671,-28C504,-28 368,29 263,143C157,256 104,389 104,541C104,692 154,822 254,933C364,1055 503,1116 671,1116M671,979C555,979 455,936 372,850C289,764 247,660 247,538C247,459 266,386 304,318C342,250 393,198 458,161C523,124 594,105 671,105C748,105 819,124 884,161C949,198 1000,250 1038,318C1076,386 1095,459 1095,538C1095,660 1053,764 970,850C886,936 786,979 671,979M610,1598l218,-308l-138,0l-295,308z"
   id="glyph4991" />
<glyph
   unicode="ô"
   horiz-adv-x="1341"
   d="M671,1116C838,1116 977,1055 1087,934C1187,823 1237,692 1237,541C1237,389 1184,256 1079,143C973,29 837,-28 671,-28C504,-28 368,29 263,143C157,256 104,389 104,541C104,692 154,822 254,933C364,1055 503,1116 671,1116M671,979C555,979 455,936 372,850C289,764 247,660 247,538C247,459 266,386 304,318C342,250 393,198 458,161C523,124 594,105 671,105C748,105 819,124 884,161C949,198 1000,250 1038,318C1076,386 1095,459 1095,538C1095,660 1053,764 970,850C886,936 786,979 671,979M605,1542l139,0l290,-257l-180,0l-176,152l-184,-152l-186,0z"
   id="glyph4993" />
<glyph
   unicode="ö"
   horiz-adv-x="1341"
   d="M671,1116C838,1116 977,1055 1087,934C1187,823 1237,692 1237,541C1237,389 1184,256 1079,143C973,29 837,-28 671,-28C504,-28 368,29 263,143C157,256 104,389 104,541C104,692 154,822 254,933C364,1055 503,1116 671,1116M671,979C555,979 455,936 372,850C289,764 247,660 247,538C247,459 266,386 304,318C342,250 393,198 458,161C523,124 594,105 671,105C748,105 819,124 884,161C949,198 1000,250 1038,318C1076,386 1095,459 1095,538C1095,660 1053,764 970,850C886,936 786,979 671,979M467,1518C499,1518 526,1507 549,1484C572,1461 583,1434 583,1402C583,1370 572,1343 549,1320C526,1297 499,1286 467,1286C435,1286 408,1297 385,1320C362,1343 351,1370 351,1402C351,1434 362,1461 385,1484C408,1507 435,1518 467,1518M875,1518C907,1518 934,1507 957,1484C980,1461 991,1434 991,1402C991,1370 980,1343 957,1320C934,1297 907,1286 875,1286C843,1286 816,1297 793,1320C770,1343 759,1370 759,1402C759,1434 770,1461 793,1484C816,1507 843,1518 875,1518z"
   id="glyph4995" />
<glyph
   unicode="õ"
   horiz-adv-x="1341"
   d="M671,1116C838,1116 977,1055 1087,934C1187,823 1237,692 1237,541C1237,389 1184,256 1079,143C973,29 837,-28 671,-28C504,-28 368,29 263,143C157,256 104,389 104,541C104,692 154,822 254,933C364,1055 503,1116 671,1116M671,979C555,979 455,936 372,850C289,764 247,660 247,538C247,459 266,386 304,318C342,250 393,198 458,161C523,124 594,105 671,105C748,105 819,124 884,161C949,198 1000,250 1038,318C1076,386 1095,459 1095,538C1095,660 1053,764 970,850C886,936 786,979 671,979M967,1492l70,-97C989,1360 949,1337 916,1325C883,1313 848,1307 811,1307C763,1307 714,1319 663,1344C620,1365 592,1378 580,1381C564,1386 547,1388 528,1388C505,1388 483,1384 462,1376C441,1367 410,1348 370,1319l-66,102C365,1486 440,1518 529,1518C572,1518 623,1505 682,1478C739,1452 783,1439 816,1439C853,1439 903,1457 967,1492z"
   id="glyph4997" />
<glyph
   unicode="ú"
   horiz-adv-x="1245"
   d="M138,1088l141,0l0,-508C279,456 286,371 299,324C319,257 357,205 414,166C470,127 537,108 615,108C693,108 759,127 814,165C868,202 905,252 926,313C940,355 947,444 947,580l0,508l143,0l0,-534C1090,404 1073,291 1038,215C1003,139 950,80 880,37C809,-6 721,-28 615,-28C509,-28 421,-6 350,37C279,80 226,140 191,217C156,294 138,409 138,564M690,1598l215,0l-295,-308l-138,0z"
   id="glyph4999" />
<glyph
   unicode="ù"
   horiz-adv-x="1245"
   d="M138,1088l141,0l0,-508C279,456 286,371 299,324C319,257 357,205 414,166C470,127 537,108 615,108C693,108 759,127 814,165C868,202 905,252 926,313C940,355 947,444 947,580l0,508l143,0l0,-534C1090,404 1073,291 1038,215C1003,139 950,80 880,37C809,-6 721,-28 615,-28C509,-28 421,-6 350,37C279,80 226,140 191,217C156,294 138,409 138,564M561,1598l218,-308l-138,0l-295,308z"
   id="glyph5001" />
<glyph
   unicode="û"
   horiz-adv-x="1245"
   d="M138,1088l141,0l0,-508C279,456 286,371 299,324C319,257 357,205 414,166C470,127 537,108 615,108C693,108 759,127 814,165C868,202 905,252 926,313C940,355 947,444 947,580l0,508l143,0l0,-534C1090,404 1073,291 1038,215C1003,139 950,80 880,37C809,-6 721,-28 615,-28C509,-28 421,-6 350,37C279,80 226,140 191,217C156,294 138,409 138,564M556,1542l139,0l290,-257l-180,0l-176,152l-184,-152l-186,0z"
   id="glyph5003" />
<glyph
   unicode="ü"
   horiz-adv-x="1245"
   d="M138,1088l141,0l0,-508C279,456 286,371 299,324C319,257 357,205 414,166C470,127 537,108 615,108C693,108 759,127 814,165C868,202 905,252 926,313C940,355 947,444 947,580l0,508l143,0l0,-534C1090,404 1073,291 1038,215C1003,139 950,80 880,37C809,-6 721,-28 615,-28C509,-28 421,-6 350,37C279,80 226,140 191,217C156,294 138,409 138,564M418,1518C450,1518 477,1507 500,1484C523,1461 534,1434 534,1402C534,1370 523,1343 500,1320C477,1297 450,1286 418,1286C386,1286 359,1297 336,1320C313,1343 302,1370 302,1402C302,1434 313,1461 336,1484C359,1507 386,1518 418,1518M826,1518C858,1518 885,1507 908,1484C931,1461 942,1434 942,1402C942,1370 931,1343 908,1320C885,1297 858,1286 826,1286C794,1286 767,1297 744,1320C721,1343 710,1370 710,1402C710,1434 721,1461 744,1484C767,1507 794,1518 826,1518z"
   id="glyph5005" />
<glyph
   unicode="†"
   horiz-adv-x="1133"
   d="M489,1508l149,0l-23,-457l360,21l0,-149l-360,26l27,-1263l-153,0l29,1263l-361,-26l0,149l361,-21z"
   id="glyph5007" />
<glyph
   unicode="°"
   horiz-adv-x="819"
   d="M755,1164C755,1067 721,986 654,920C587,853 505,820 409,820C313,820 232,853 165,920C98,987 65,1069 65,1167C65,1261 99,1341 168,1408C236,1475 317,1508 412,1508C507,1508 588,1475 655,1408C722,1341 755,1260 755,1164M636,1162C636,1230 614,1287 571,1333C528,1379 475,1402 413,1402C350,1402 297,1379 252,1333C207,1286 184,1230 184,1164C184,1099 207,1044 252,997C297,950 351,926 412,926C473,926 526,949 570,995C614,1041 636,1097 636,1162z"
   id="glyph5009" />
<glyph
   unicode="¢"
   horiz-adv-x="1135"
   d="M961,1340l121,-60l-132,-257C998,992 1037,961 1066,929l-85,-105C950,853 919,879 886,900l-394,-766C542,113 590,102 636,102C733,102 835,145 942,230l91,-106C981,78 920,41 849,14C778,-14 708,-28 637,-28C573,-28 504,-16 429,9l-152,-295l-117,64l151,301C239,144 186,213 153,288C120,363 103,445 103,535C103,695 153,832 254,946C354,1059 485,1116 647,1116C707,1116 767,1105 828,1083M765,961C722,975 682,982 644,982C530,982 435,942 359,862C282,781 244,675 244,543C244,470 255,407 277,352C299,297 332,250 377,209z"
   id="glyph5011" />
<glyph
   unicode="£"
   horiz-adv-x="1135"
   d="M99,844l254,0C317,972 297,1048 293,1071C286,1109 282,1145 282,1179C282,1268 317,1346 386,1411C455,1476 541,1508 643,1508C710,1508 767,1494 815,1466C862,1437 901,1396 932,1343C963,1289 982,1216 989,1125l-136,0C850,1206 831,1267 794,1310C757,1353 708,1374 647,1374C580,1374 525,1355 484,1318C443,1280 422,1230 422,1169C422,1115 432,1061 451,1006l7,-18l45,-144l320,0l0,-129l-286,0C562,631 574,543 574,451C574,380 567,317 552,263C593,229 648,191 718,148C758,124 795,112 828,112C891,112 927,189 934,344l141,0C1076,266 1065,196 1042,133C1019,70 990,26 957,1C924,-24 886,-37 845,-37C800,-37 752,-25 700,-2C628,30 562,72 503,123C448,16 369,-37 266,-37C202,-37 151,-20 114,14C76,47 57,93 57,151C57,215 79,270 123,315C167,360 219,383 279,383C324,383 372,370 423,344C428,389 430,424 430,450C430,544 415,632 385,715l-286,0M385,207C340,234 302,248 271,248C249,248 231,241 216,226C201,211 194,193 194,171C194,150 201,132 214,118C227,103 242,96 261,96C311,96 352,133 385,207z"
   id="glyph5013" />
<glyph
   unicode="§"
   horiz-adv-x="1259"
   d="M964,1194l-147,0C810,1257 786,1306 745,1342C704,1377 651,1395 586,1395C515,1395 460,1378 420,1343C379,1308 359,1266 359,1215C359,1186 365,1159 378,1134C395,1101 423,1068 461,1036C499,1003 565,959 659,903C769,837 844,787 883,752C922,717 951,680 970,639C989,598 999,559 999,520C999,453 973,391 922,334C870,277 800,241 713,224C784,180 838,128 875,69C912,10 931,-51 931,-112C931,-200 897,-274 829,-335C761,-396 672,-426 562,-426C453,-426 363,-398 291,-343C219,-288 176,-219 162,-138l148,0C325,-181 348,-214 377,-237C425,-276 484,-295 553,-295C623,-295 679,-277 721,-242C762,-207 783,-164 783,-114C783,-69 766,-25 733,18C700,61 623,120 503,197C388,270 318,316 293,335C237,378 196,424 170,471C143,518 130,567 130,616C130,658 140,699 161,740C182,780 211,815 249,846C286,876 333,899 390,916C324,963 278,1011 252,1059C225,1107 212,1160 212,1219C212,1312 246,1388 313,1447C380,1506 470,1536 584,1536C695,1536 783,1507 848,1448C913,1389 952,1304 964,1194M507,839C434,828 377,803 337,764C296,725 276,678 276,623C276,574 294,530 329,490C375,437 464,376 596,306C677,316 741,342 786,383C831,424 853,470 853,523C853,564 837,602 806,637C775,672 680,736 521,830z"
   id="glyph5015" />
<glyph
   unicode="•"
   horiz-adv-x="1241"
   d="M620,1053C705,1053 777,1023 837,963C897,903 927,831 927,746C927,661 897,588 837,528C777,468 705,438 620,438C535,438 463,468 403,528C343,588 313,661 313,746C313,831 343,903 403,963C463,1023 535,1053 620,1053z"
   id="glyph5017" />
<glyph
   unicode="¶"
   horiz-adv-x="1155"
   d="M483,-231l0,937C433,706 396,709 372,714C320,725 273,748 231,782C189,815 156,860 131,917C106,973 94,1036 94,1105C94,1231 133,1334 210,1413C275,1480 374,1513 509,1513l513,0l0,-75l-84,0l0,-1669l-119,0l0,1669l-217,0l0,-1669z"
   id="glyph5019" />
<glyph
   unicode="ß"
   horiz-adv-x="1135"
   d="M162,0l0,995C162,1146 177,1253 206,1317C235,1381 282,1434 349,1475C415,1516 493,1536 583,1536C701,1536 796,1502 869,1433C941,1364 977,1278 977,1174C977,1108 960,1049 927,998C894,947 847,906 788,875C755,858 710,846 651,838C716,828 765,814 800,796C872,758 928,706 969,639C1010,572 1030,495 1030,408C1030,280 991,175 913,94C835,13 735,-28 613,-28C531,-28 462,-12 405,21l0,133C475,121 538,105 593,105C678,105 749,134 806,191C862,248 890,321 890,412C890,513 856,595 789,658C721,721 623,755 495,759l0,157l32,0C620,916 694,941 750,990C806,1039 834,1098 834,1168C834,1234 811,1289 764,1334C717,1379 658,1401 586,1401C529,1401 477,1386 430,1355C383,1324 348,1282 327,1230C311,1189 303,1107 303,982l0,-982z"
   id="glyph5021" />
<glyph
   unicode="®"
   horiz-adv-x="1530"
   d="M1551,760C1551,619 1516,488 1446,367C1376,246 1280,150 1158,79C1036,8 905,-27 766,-27C627,-27 496,8 374,79C252,149 156,245 86,366C15,487 -20,617 -20,756C-20,896 15,1027 86,1150C156,1273 252,1369 374,1439C495,1509 626,1544 766,1544C906,1544 1037,1509 1158,1440C1279,1370 1374,1274 1445,1151C1516,1028 1551,898 1551,760M1442,759C1442,879 1412,992 1351,1098C1290,1203 1208,1286 1104,1347C1000,1408 888,1438 768,1438C647,1438 534,1408 429,1347C323,1286 240,1203 180,1098C119,992 89,878 89,757C89,636 119,524 180,419C240,314 323,232 429,171C535,110 648,80 768,80C887,80 999,111 1104,172C1209,233 1291,315 1352,420C1412,524 1442,637 1442,759M439,1217l377,0C904,1217 967,1208 1006,1191C1045,1173 1076,1144 1101,1104C1125,1064 1137,1017 1137,964C1137,918 1128,878 1111,845C1098,820 1069,793 1024,764C1065,744 1092,721 1106,695C1120,668 1127,623 1127,559l0,-102C1127,409 1138,369 1159,337l15,-24l-160,0C1004,350 997,395 993,446l-7,111C983,598 977,626 967,643C956,660 942,672 923,679C904,686 866,690 809,690l-227,0l0,-377l-143,0M582,1087l0,-268l222,0C871,819 917,827 941,842C976,864 994,901 994,954C994,1000 981,1034 956,1055C931,1076 883,1087 813,1087z"
   id="glyph5023" />
<glyph
   unicode="©"
   horiz-adv-x="1530"
   d="M1551,757C1551,616 1516,486 1446,365C1376,244 1280,149 1159,79C1037,8 906,-27 766,-27C626,-27 495,8 373,79C251,149 155,245 85,366C15,487 -20,617 -20,757C-20,897 15,1028 85,1149C155,1270 251,1365 373,1435C494,1505 625,1540 766,1540C906,1540 1037,1505 1159,1435C1280,1365 1376,1270 1446,1149C1516,1028 1551,897 1551,757M1442,757C1442,878 1412,991 1352,1096C1291,1200 1209,1282 1104,1343C999,1404 886,1434 765,1434C644,1434 532,1404 427,1343C322,1282 240,1200 180,1095C119,990 89,878 89,757C89,636 119,523 180,418C240,313 323,231 428,171C533,110 645,80 766,80C887,80 999,110 1104,171C1209,231 1291,313 1352,418C1412,523 1442,636 1442,757M1150,924l-136,0C1000,983 974,1028 935,1058C896,1087 844,1102 779,1102C694,1102 626,1072 575,1013C524,953 498,866 498,751C498,639 523,554 572,495C621,436 686,407 765,407C832,407 887,428 931,469C974,510 1002,571 1014,653l136,0C1137,544 1096,457 1026,392C956,327 871,295 770,295C644,295 543,336 468,417C393,498 355,610 355,753C355,904 394,1021 473,1105C551,1189 650,1231 771,1231C882,1231 971,1203 1038,1148C1105,1092 1142,1017 1150,924z"
   id="glyph5025" />
<glyph
   unicode="™"
   horiz-adv-x="2048"
   d="M1966,1513l0,-862l-150,0l0,710l-321,-710l-99,0l-311,710l0,-710l-149,0l0,862l243,0l267,-597l282,597M770,1513l0,-137l-305,0l0,-725l-150,0l0,725l-303,0l0,137z"
   id="glyph5027" />
<glyph
   unicode="´"
   horiz-adv-x="768"
   d="M452,1598l215,0l-295,-308l-138,0z"
   id="glyph5029" />
<glyph
   unicode="¨"
   horiz-adv-x="756"
   d="M174,1518C206,1518 233,1507 256,1484C279,1461 290,1434 290,1402C290,1370 279,1343 256,1320C233,1297 206,1286 174,1286C142,1286 115,1297 92,1320C69,1343 58,1370 58,1402C58,1434 69,1461 92,1484C115,1507 142,1518 174,1518M582,1518C614,1518 641,1507 664,1484C687,1461 698,1434 698,1402C698,1370 687,1343 664,1320C641,1297 614,1286 582,1286C550,1286 523,1297 500,1320C477,1343 466,1370 466,1402C466,1434 477,1461 500,1484C523,1507 550,1518 582,1518z"
   id="glyph5031" />
<glyph
   unicode="≠"
   horiz-adv-x="1124"
   d="M742,1024l326,0l0,-137l-379,0l-117,-303l496,0l0,-137l-549,0l-187,-484l-138,0l186,484l-324,0l0,137l377,0l116,303l-493,0l0,137l545,0l186,484l142,0z"
   id="glyph5033" />
<glyph
   unicode="Æ"
   horiz-adv-x="2032"
   d="M1,0l950,1471l910,0l0,-151l-693,0l0,-452l693,0l0,-145l-693,0l0,-579l693,0l0,-144l-842,0l0,482l-535,0l-312,-482M578,620l441,0l0,681z"
   id="glyph5035" />
<glyph
   unicode="Ø"
   horiz-adv-x="1778"
   d="M1454,1269C1521,1201 1572,1122 1609,1031C1645,940 1663,841 1663,736C1663,521 1588,338 1439,188C1289,38 1106,-37 891,-37C728,-37 582,6 454,91l-164,-194l-107,87l165,194C192,329 114,513 114,729C114,870 148,1002 217,1123C286,1244 379,1338 498,1406C617,1474 747,1508 889,1508C1060,1508 1216,1459 1356,1360l144,174l105,-87M444,291l811,954C1142,1324 1019,1364 886,1364C777,1364 674,1336 577,1279C480,1222 404,1146 349,1050C294,954 267,847 267,728C267,558 326,412 444,291M1356,1153l-805,-949C652,139 764,106 886,106C1000,106 1106,134 1203,189C1300,244 1375,320 1430,416C1484,512 1511,619 1511,736C1511,899 1459,1038 1356,1153z"
   id="glyph5037" />
<glyph
   unicode="∞"
   horiz-adv-x="1460"
   d="M687,812C765,909 827,972 873,1001C919,1030 968,1044 1020,1044C1093,1044 1160,1018 1219,966C1278,914 1308,833 1308,723C1308,611 1280,527 1224,472C1168,416 1100,388 1020,388C962,388 910,404 864,437C817,470 758,531 687,620C596,506 500,449 398,449C330,449 272,475 224,527C176,578 152,641 152,716C152,791 176,854 224,906C272,957 330,983 398,983C500,983 596,926 687,812M756,717C811,632 862,572 908,537C941,512 978,499 1018,499C1069,499 1112,518 1146,556C1180,593 1197,646 1197,713C1197,783 1180,837 1145,875C1110,912 1067,931 1014,931C979,931 944,919 911,895C877,870 825,811 756,717M618,716C567,781 525,823 493,843C460,863 429,873 398,873C359,873 326,859 301,832C276,804 263,766 263,719C263,672 276,635 303,606C329,577 361,563 400,563C467,563 540,614 618,716z"
   id="glyph5039" />
<glyph
   unicode="±"
   horiz-adv-x="1124"
   d="M493,913l0,434l137,0l0,-434l438,0l0,-137l-438,0l0,-434l-137,0l0,434l-437,0l0,137M1068,161l0,-137l-1012,0l0,137z"
   id="glyph5041" />
<glyph
   unicode="≤"
   horiz-adv-x="1124"
   d="M1079,481l0,-146l-1033,469l0,130l1033,471l0,-147l-839,-390M1079,231l0,-137l-1033,0l0,137z"
   id="glyph5043" />
<glyph
   unicode="≥"
   horiz-adv-x="1124"
   d="M46,481l839,387l-839,390l0,147l1033,-471l0,-130l-1033,-469M1079,231l0,-137l-1033,0l0,137z"
   id="glyph5045" />
<glyph
   unicode="¥"
   horiz-adv-x="1135"
   d="M906,1471l166,0l-417,-735l356,0l0,-117l-374,0l0,-155l374,0l0,-117l-374,0l0,-347l-144,0l0,347l-370,0l0,117l370,0l0,155l-370,0l0,117l353,0l-414,735l167,0l337,-602z"
   id="glyph5047" />
<glyph
   unicode="µ"
   horiz-adv-x="1180"
   d="M147,-398l0,1486l141,0l0,-600C288,397 299,330 322,285C344,240 380,203 430,173C480,142 534,127 592,127C650,127 702,142 749,171C795,200 831,240 856,291C881,342 893,412 893,501l0,587l140,0l0,-1088l-140,0l0,118C854,69 809,33 760,10C710,-13 654,-25 591,-25C528,-25 472,-13 422,10C371,33 327,68 288,115l0,-513z"
   id="glyph5049" />
<glyph
   unicode="∂"
   horiz-adv-x="1012"
   d="M426,1138l-135,60C336,1297 390,1371 455,1419C519,1467 584,1491 651,1491C710,1491 764,1472 813,1435C862,1398 901,1337 930,1254C959,1170 973,1061 973,926C973,729 944,558 886,412C827,265 750,156 654,84C558,11 461,-25 364,-25C272,-25 198,6 141,67C84,128 56,213 56,322C56,479 111,612 220,720C353,851 565,919 858,924C855,1051 846,1144 829,1201C812,1258 788,1299 757,1325C726,1350 691,1363 653,1363C558,1363 482,1288 426,1138M854,796C689,786 569,763 495,727C421,691 359,633 310,552C261,471 236,388 236,303C236,248 253,202 287,166C321,130 361,112 406,112C464,112 526,136 592,185C658,234 714,308 761,409C807,510 838,639 854,796z"
   id="glyph5051" />
<glyph
   unicode="∑"
   horiz-adv-x="1460"
   d="M139,1536l1237,0l0,-164l-988,0l607,-796l-646,-841l1037,0l0,-161l-1264,0l0,187l620,808l-603,791z"
   id="glyph5053" />
<glyph
   unicode="∏"
   horiz-adv-x="1685"
   d="M162,1536l1362,0l0,-1962l-191,0l0,1788l-978,0l0,-1788l-193,0z"
   id="glyph5055" />
<glyph
   unicode="∫"
   horiz-adv-x="561"
   d="M201,948C201,1087 206,1254 217,1447C224,1570 242,1667 271,1739C288,1779 312,1810 343,1831C374,1852 404,1863 435,1863C468,1863 497,1852 522,1830C547,1808 560,1783 560,1756C560,1725 551,1700 534,1681C516,1662 494,1652 468,1652C445,1652 419,1664 392,1688C377,1701 363,1708 352,1708C340,1708 330,1703 323,1694C316,1684 312,1667 312,1644C312,1616 315,1568 321,1499C346,1226 358,1004 358,834C358,789 353,600 343,267C337,64 309,-73 259,-143C222,-194 175,-220 118,-220C83,-220 55,-209 33,-186C11,-163 0,-134 0,-99C0,-70 9,-46 26,-27C43,-9 64,0 90,0C117,0 140,-11 160,-33C179,-54 195,-64 208,-64C219,-64 229,-59 236,-49C243,-40 247,-24 247,-3C247,25 244,65 238,117C213,328 201,605 201,948z"
   id="glyph5057" />
<glyph
   unicode="ª"
   horiz-adv-x="756"
   d="M664,1491l0,-681l-114,0l0,94C522,867 491,840 457,822C422,803 384,794 343,794C267,794 200,828 143,896C86,963 57,1049 57,1152C57,1254 86,1339 144,1407C202,1474 269,1508 345,1508C386,1508 423,1498 458,1479C492,1460 523,1431 550,1392l0,99M365,1399C314,1399 269,1376 231,1329C192,1282 173,1223 173,1150C173,1077 192,1016 231,969C270,922 314,898 364,898C415,898 460,921 499,966C537,1011 556,1072 556,1148C556,1223 537,1283 499,1330C461,1376 416,1399 365,1399z"
   id="glyph5059" />
<glyph
   unicode="º"
   horiz-adv-x="756"
   d="M377,1508C466,1508 542,1474 605,1405C668,1336 700,1251 700,1149C700,1048 669,963 606,896C543,828 466,794 377,794C288,794 213,828 150,896C87,963 55,1048 55,1149C55,1252 87,1337 150,1406C213,1474 289,1508 377,1508M377,1398C323,1398 275,1374 234,1326C193,1278 172,1218 172,1147C172,1076 192,1017 233,971C273,924 321,901 377,901C434,901 482,924 523,971C563,1017 583,1076 583,1147C583,1218 562,1278 521,1326C480,1374 432,1398 377,1398z"
   id="glyph5061" />
<glyph
   unicode="Ω"
   horiz-adv-x="1573"
   d="M496,160C412,213 347,269 300,328C253,387 216,456 190,537C163,618 150,706 150,802C150,942 178,1066 235,1173C291,1280 368,1361 466,1418C564,1475 678,1503 808,1503C1023,1503 1191,1424 1310,1267C1407,1140 1455,985 1455,801C1455,709 1442,624 1416,545C1389,466 1352,395 1304,333C1256,271 1192,213 1111,160l364,6l0,-166l-575,0l0,177C960,207 1008,239 1044,272C1105,331 1155,404 1192,492C1229,579 1247,674 1247,777C1247,891 1227,993 1187,1083C1146,1172 1094,1238 1031,1279C968,1320 892,1340 804,1340C674,1340 568,1291 486,1193C403,1095 362,957 362,780C362,633 393,509 454,406C515,303 599,227 704,180l0,-180l-577,0l0,168z"
   id="glyph5063" />
<glyph
   unicode="æ"
   horiz-adv-x="2370"
   d="M1245,1088l0,-197C1316,976 1384,1034 1450,1067C1516,1100 1593,1116 1682,1116C1846,1116 1982,1061 2089,952C2196,842 2249,701 2248,530l-979,0C1272,453 1292,380 1331,311C1370,242 1421,190 1485,154C1548,118 1619,100 1696,100C1779,100 1854,121 1920,162C1986,203 2044,268 2093,357l120,-60C2164,194 2093,114 2000,57C1907,0 1803,-28 1686,-28C1583,-28 1492,-5 1411,41C1353,74 1298,125 1245,194l0,-194l-128,0l0,201C1058,127 1000,74 944,42C864,-5 776,-28 681,-28C527,-28 395,28 285,140C175,251 120,387 120,548C120,652 145,747 194,834C243,920 312,989 399,1040C486,1091 579,1116 677,1116C771,1116 859,1093 941,1047C999,1014 1058,961 1117,890l0,198M2093,651C2074,727 2047,787 2012,832C1977,877 1930,913 1871,941C1812,968 1752,982 1690,982C1627,982 1565,968 1506,940C1446,911 1397,874 1359,827C1321,780 1294,721 1277,651M687,981C611,981 540,962 474,924C407,886 356,834 319,767C282,700 263,625 263,544C263,419 304,314 387,231C470,147 571,105 692,105C813,105 914,147 997,230C1079,313 1120,417 1120,542C1120,629 1102,705 1067,770C1031,835 979,886 911,924C842,962 768,981 687,981z"
   id="glyph5065" />
<glyph
   unicode="ø"
   horiz-adv-x="1337"
   d="M1102,913C1191,806 1235,682 1235,541C1235,389 1182,256 1077,143C971,29 835,-28 669,-28C560,-28 460,-1 370,54l-116,-137l-89,74l114,134C161,239 102,378 102,541C102,693 155,827 260,943C365,1058 501,1116 668,1116C802,1116 919,1076 1019,996l116,137l92,-74M367,229l560,658C848,948 762,979 669,979C595,979 525,960 460,921C394,882 342,828 303,759C264,690 245,616 245,538C245,481 256,425 278,370C299,315 329,268 367,229M1007,802l-548,-644C528,123 597,105 668,105C745,105 817,124 882,161C947,198 998,250 1036,318C1074,386 1093,459 1093,537C1093,633 1064,721 1007,802z"
   id="glyph5067" />
<glyph
   unicode="¿"
   horiz-adv-x="1210"
   d="M604,1110C638,1110 667,1098 691,1074C715,1050 727,1021 727,986C727,951 715,922 691,898C667,874 638,862 604,862C570,862 541,874 517,898C493,922 481,951 481,986C481,1020 493,1049 517,1074C541,1098 570,1110 604,1110M896,11l145,0C1040,-124 1000,-230 921,-308C842,-387 736,-426 603,-426C472,-426 370,-393 295,-327C220,-261 183,-179 183,-81C183,-34 193,9 214,49C235,88 266,124 307,156C348,187 420,223 523,264C653,316 732,355 760,381C787,407 801,438 801,474C801,513 782,547 745,578C707,609 658,624 598,624C532,624 481,607 446,574C411,540 389,486 381,412l-146,0C240,523 274,610 339,672C403,734 489,765 598,765C706,765 792,737 856,681C920,625 952,556 952,473C952,433 943,395 926,360C908,324 883,294 851,270C818,246 757,216 668,179C524,120 432,76 392,47C351,18 331,-24 331,-78C331,-136 356,-185 405,-225C454,-266 519,-286 601,-286C702,-286 780,-253 835,-187C874,-141 894,-75 896,11z"
   id="glyph5069" />
<glyph
   unicode="¡"
   horiz-adv-x="604"
   d="M302,1110C336,1110 365,1098 389,1074C413,1050 425,1021 425,986C425,951 413,922 389,898C365,874 336,862 302,862C268,862 239,874 215,898C191,922 179,951 179,986C179,1020 191,1049 215,1074C239,1098 268,1110 302,1110M231,-426l0,1140l145,0l0,-1140z"
   id="glyph5071" />
<glyph
   unicode="¬"
   horiz-adv-x="1241"
   d="M1127,1024l0,-577l-137,0l-1,440l-874,0l0,137z"
   id="glyph5073" />
<glyph
   unicode="√"
   horiz-adv-x="1124"
   d="M1047,1869l74,0l-312,-1947l-496,1021l-198,-91l-34,64l301,151l405,-823z"
   id="glyph5075" />
<glyph
   unicode="ƒ"
   horiz-adv-x="1135"
   d="M621,882l231,0l-17,-122l-233,0l-107,-710C476,-81 451,-178 421,-241C391,-304 354,-351 311,-381C267,-411 221,-426 174,-426C129,-426 81,-410 32,-377l18,124C87,-283 124,-298 161,-298C208,-298 249,-274 284,-225C318,-176 346,-78 367,71l101,689l-141,0l17,122l141,0l49,319C553,1324 574,1403 599,1440C643,1504 698,1536 765,1536C820,1536 879,1514 942,1471l-18,-133C873,1387 826,1411 785,1411C752,1411 727,1396 710,1366C692,1335 676,1272 663,1176z"
   id="glyph5077" />
<glyph
   unicode="≈"
   horiz-adv-x="1124"
   d="M1070,1023l0,-162C995,819 942,793 910,782C877,771 847,765 818,765C755,765 666,791 553,842C465,882 409,906 385,914C360,921 337,925 316,925C287,925 254,919 219,906C184,893 129,865 54,820l0,160C127,1022 180,1049 213,1060C246,1071 277,1076 308,1076C373,1076 462,1049 576,995C655,958 709,935 738,926C767,917 793,912 816,912C844,912 872,918 901,929C930,940 986,971 1070,1023M1070,651l0,-162C995,447 942,421 910,410C877,399 847,393 818,393C755,393 666,419 553,470C465,510 409,534 385,542C360,549 337,553 316,553C287,553 254,547 219,534C184,521 129,492 54,448l0,160C127,649 180,676 213,687C246,698 277,704 308,704C373,704 462,677 576,623C655,586 709,563 738,554C767,545 793,540 816,540C844,540 872,546 901,557C930,568 986,599 1070,651z"
   id="glyph5079" />
<glyph
   unicode="∆"
   horiz-adv-x="1253"
   d="M1226,0l-1200,0l628,1387M990,82l-399,967l-440,-967z"
   id="glyph5081" />
<glyph
   unicode="«"
   horiz-adv-x="870"
   d="M391,1088l-223,-546l223,-542l-148,0l-222,542l222,546M849,1088l-224,-546l224,-542l-148,0l-222,542l222,546z"
   id="glyph5083" />
<glyph
   unicode="»"
   horiz-adv-x="870"
   d="M479,0l223,545l-223,543l147,0l223,-543l-223,-545M21,0l223,545l-223,543l148,0l222,-543l-222,-545z"
   id="glyph5085" />
<glyph
   unicode="…"
   horiz-adv-x="2048"
   d="M1024,220C1058,220 1087,208 1111,184C1135,160 1147,131 1147,96C1147,62 1135,33 1111,9C1087,-16 1058,-28 1024,-28C990,-28 961,-16 937,9C913,33 901,62 901,96C901,131 913,160 937,184C961,208 990,220 1024,220M341,220C375,220 404,208 428,184C452,160 464,131 464,96C464,62 452,33 428,9C404,-16 375,-28 341,-28C307,-28 278,-16 254,9C230,33 218,62 218,96C218,131 230,160 254,184C278,208 307,220 341,220M1707,220C1740,220 1769,208 1794,184C1818,160 1830,131 1830,96C1830,62 1818,33 1794,9C1769,-16 1740,-28 1707,-28C1673,-28 1644,-16 1620,9C1596,33 1584,62 1584,96C1584,131 1596,160 1620,184C1644,208 1673,220 1707,220z"
   id="glyph5087" />
<glyph
   unicode=" "
   horiz-adv-x="573"
   id="glyph5089" />
<glyph
   unicode="À"
   horiz-adv-x="1515"
   d="M780,1471l686,-1471l-158,0l-231,484l-634,0l-230,-484l-164,0l695,1471M762,1159l-253,-533l503,0M697,1895l218,-308l-138,0l-295,308z"
   id="glyph5091" />
<glyph
   unicode="Ã"
   horiz-adv-x="1515"
   d="M780,1471l686,-1471l-158,0l-231,484l-634,0l-230,-484l-164,0l695,1471M762,1159l-253,-533l503,0M1054,1789l70,-97C1076,1657 1036,1634 1003,1622C970,1610 935,1604 898,1604C850,1604 801,1616 750,1641C707,1662 679,1675 667,1678C651,1683 634,1685 615,1685C592,1685 570,1681 549,1673C528,1664 497,1645 457,1616l-66,102C452,1783 527,1815 616,1815C659,1815 710,1802 769,1775C826,1749 870,1736 903,1736C940,1736 990,1754 1054,1789z"
   id="glyph5093" />
<glyph
   unicode="Õ"
   horiz-adv-x="1780"
   d="M880,1508C1103,1508 1289,1434 1439,1285C1589,1136 1664,953 1664,736C1664,521 1589,338 1440,188C1290,38 1107,-37 892,-37C674,-37 490,38 340,187C190,336 115,517 115,729C115,870 149,1001 218,1122C286,1243 379,1337 497,1406C615,1474 743,1508 880,1508M887,1364C778,1364 675,1336 578,1279C481,1222 405,1146 350,1050C295,954 268,847 268,729C268,554 329,407 450,287C571,166 716,106 887,106C1001,106 1107,134 1204,189C1301,244 1376,320 1431,416C1485,512 1512,619 1512,736C1512,853 1485,958 1431,1053C1376,1147 1300,1222 1201,1279C1102,1336 998,1364 887,1364M1186,1789l70,-97C1208,1657 1168,1634 1135,1622C1102,1610 1067,1604 1030,1604C982,1604 933,1616 882,1641C839,1662 811,1675 799,1678C783,1683 766,1685 747,1685C724,1685 702,1681 681,1673C660,1664 629,1645 589,1616l-66,102C584,1783 659,1815 748,1815C791,1815 842,1802 901,1775C958,1749 1002,1736 1035,1736C1072,1736 1122,1754 1186,1789z"
   id="glyph5095" />
<glyph
   unicode="Œ"
   horiz-adv-x="2445"
   d="M1522,1471l838,0l0,-145l-689,0l0,-457l689,0l0,-145l-689,0l0,-579l689,0l0,-145l-838,0l0,285C1456,201 1393,138 1334,95C1275,52 1208,20 1135,-3C1062,-26 981,-37 894,-37C648,-37 449,54 296,236C175,381 114,545 114,728C114,867 148,997 217,1118C285,1239 381,1335 504,1404C627,1473 758,1508 896,1508C1028,1508 1154,1474 1274,1405C1369,1350 1452,1277 1522,1186M891,1366C726,1366 582,1304 459,1179C335,1054 273,908 273,740C273,563 334,414 456,291C578,168 727,106 903,106C1073,106 1218,168 1339,291C1460,414 1520,562 1520,737C1520,851 1492,956 1437,1051C1382,1146 1304,1223 1204,1280C1104,1337 1000,1366 891,1366z"
   id="glyph5097" />
<glyph
   unicode="œ"
   horiz-adv-x="2329"
   d="M2214,531l-976,0C1247,382 1294,274 1378,205C1461,136 1556,101 1663,101C1750,101 1828,123 1898,168C1967,213 2022,277 2061,361l119,-61C2117,185 2044,101 1959,50C1874,-2 1772,-28 1654,-28C1589,-28 1526,-18 1466,3C1405,23 1354,50 1311,83C1268,116 1220,171 1166,247C1105,156 1034,87 953,41C871,-5 779,-28 677,-28C520,-28 387,28 277,140C167,252 112,389 112,550C112,730 181,876 318,987C424,1073 544,1116 678,1116C787,1116 886,1087 977,1028C1043,986 1106,919 1166,828C1222,917 1281,982 1344,1024C1435,1085 1539,1116 1657,1116C1812,1116 1944,1062 2053,955C2161,847 2215,718 2215,567M672,981C598,981 528,962 463,924C398,885 346,831 308,762C270,693 251,619 251,542C251,463 270,390 308,322C345,254 398,200 467,161C536,121 607,101 681,101C754,101 824,121 891,160C958,199 1009,251 1045,317C1081,382 1099,456 1099,537C1099,662 1058,768 975,853C892,938 791,981 672,981M2061,651C2034,756 1984,838 1912,895C1840,952 1755,980 1658,980C1553,980 1462,947 1383,880C1322,829 1278,752 1251,651z"
   id="glyph5099" />
<glyph
   unicode="–"
   horiz-adv-x="1024"
   d="M-12,637l1048,0l0,-129l-1048,0z"
   id="glyph5101" />
<glyph
   unicode="—"
   horiz-adv-x="2048"
   d="M-12,637l2072,0l0,-129l-2072,0z"
   id="glyph5103" />
<glyph
   unicode="“"
   horiz-adv-x="1028"
   d="M289,1508l78,-44C342,1413 325,1374 316,1345C307,1316 301,1279 296,1234l89,0l0,-275l-181,0l0,172C204,1217 210,1285 222,1334C233,1383 256,1441 289,1508M734,1508l78,-44C787,1413 770,1374 761,1345C752,1316 746,1279 741,1234l89,0l0,-275l-181,0l0,172C649,1217 655,1285 666,1334C677,1383 700,1441 734,1508z"
   id="glyph5105" />
<glyph
   unicode="”"
   horiz-adv-x="991"
   d="M721,959l-77,44C669,1054 686,1093 695,1122C704,1151 710,1188 714,1233l-88,0l0,275l181,0l0,-172C807,1250 801,1183 790,1134C778,1085 755,1026 721,959M276,959l-77,44C224,1054 241,1093 250,1122C259,1151 265,1188 269,1233l-88,0l0,275l181,0l0,-172C362,1250 356,1183 345,1134C333,1085 310,1026 276,959z"
   id="glyph5107" />
<glyph
   unicode="‘"
   horiz-adv-x="719"
   d="M371,1508l78,-44C424,1413 407,1374 398,1345C389,1316 383,1279 378,1234l89,0l0,-275l-181,0l0,172C286,1217 292,1285 304,1334C315,1383 338,1441 371,1508z"
   id="glyph5109" />
<glyph
   unicode="’"
   horiz-adv-x="719"
   d="M347,959l-77,44C295,1054 312,1093 321,1122C330,1151 336,1188 340,1233l-88,0l0,275l181,0l0,-172C433,1250 427,1183 416,1134C404,1085 381,1026 347,959z"
   id="glyph5111" />
<glyph
   unicode="÷"
   horiz-adv-x="1124"
   d="M461,1207l201,0l0,-202l-201,0M56,804l1012,0l0,-137l-1012,0M461,466l201,0l0,-205l-201,0z"
   id="glyph5113" />
<glyph
   unicode="◊"
   horiz-adv-x="1012"
   d="M549,1422l418,-713l-418,-709l-111,0l-391,709l391,713M495,1325l-340,-616l340,-615l359,615z"
   id="glyph5115" />
<glyph
   unicode="ÿ"
   horiz-adv-x="1098"
   d="M39,1088l148,0l374,-838l363,838l149,0l-649,-1486l-148,0l210,480M355,1518C387,1518 414,1507 437,1484C460,1461 471,1434 471,1402C471,1370 460,1343 437,1320C414,1297 387,1286 355,1286C323,1286 296,1297 273,1320C250,1343 239,1370 239,1402C239,1434 250,1461 273,1484C296,1507 323,1518 355,1518M763,1518C795,1518 822,1507 845,1484C868,1461 879,1434 879,1402C879,1370 868,1343 845,1320C822,1297 795,1286 763,1286C731,1286 704,1297 681,1320C658,1343 647,1370 647,1402C647,1434 658,1461 681,1484C704,1507 731,1518 763,1518z"
   id="glyph5117" />
<glyph
   unicode="Ÿ"
   horiz-adv-x="1212"
   d="M63,1471l170,0l376,-606l370,606l170,0l-466,-768l0,-703l-145,0l0,703M402,1816C434,1816 461,1805 484,1782C507,1759 518,1732 518,1700C518,1668 507,1641 484,1618C461,1595 434,1584 402,1584C370,1584 343,1595 320,1618C297,1641 286,1668 286,1700C286,1732 297,1759 320,1782C343,1805 370,1816 402,1816M810,1816C842,1816 869,1805 892,1782C915,1759 926,1732 926,1700C926,1668 915,1641 892,1618C869,1595 842,1584 810,1584C778,1584 751,1595 728,1618C705,1641 694,1668 694,1700C694,1732 705,1759 728,1782C751,1805 778,1816 810,1816z"
   id="glyph5119" />
<glyph
   unicode="⁄"
   horiz-adv-x="340"
   d="M-347,-37l923,1545l112,0l-925,-1545z"
   id="glyph5121" />
<glyph
   unicode="€"
   horiz-adv-x="1135"
   d="M197,965C248,1132 343,1265 482,1362C620,1459 779,1507 958,1507C1001,1507 1055,1502 1118,1493l-37,-141C1042,1360 1002,1364 961,1364C828,1364 708,1329 599,1258C490,1187 410,1090 360,965l639,0l-36,-138l-637,0C321,796 319,764 319,731C319,711 321,685 324,653l591,0l-36,-137l-525,0C400,386 479,284 590,211C701,137 827,100 969,100C1012,100 1059,106 1108,117l0,-140C1065,-31 1015,-35 958,-35C771,-35 609,14 473,111C336,208 244,343 195,516l-148,0l35,137l88,0C167,690 166,720 166,743C166,764 167,792 170,827l-123,0l37,138z"
   id="glyph5123" />
<glyph
   unicode="‹"
   horiz-adv-x="514"
   d="M445,1088l-223,-546l223,-542l-148,0l-222,542l222,546z"
   id="glyph5125" />
<glyph
   unicode="›"
   horiz-adv-x="514"
   d="M70,0l223,545l-223,543l148,0l222,-543l-222,-545z"
   id="glyph5127" />
<glyph
   unicode="ﬁ"
   horiz-adv-x="997"
   d="M858,1264l-142,0C697,1356 641,1402 549,1402C508,1402 473,1393 446,1375C418,1356 398,1332 386,1302C374,1271 368,1216 368,1136l0,-48l226,0l0,-123l-226,0l0,-965l-142,0l0,965l-142,0l0,123l142,0l0,48C226,1241 238,1318 262,1369C285,1419 322,1459 372,1490C421,1521 481,1536 551,1536C639,1536 711,1511 767,1460C822,1409 853,1344 858,1264M716,1088l142,0l0,-1088l-142,0z"
   id="glyph5129" />
<glyph
   unicode="ﬂ"
   horiz-adv-x="993"
   d="M603,1088l0,-124l-224,0l0,-964l-144,0l0,964l-143,0l0,124l143,0l0,36C235,1237 246,1318 269,1367C291,1416 327,1457 378,1489C428,1520 486,1536 552,1536C619,1536 677,1520 728,1487C778,1454 813,1414 834,1365C855,1316 865,1230 865,1107l0,-1107l-143,0l0,1115C722,1207 717,1269 707,1301C696,1332 677,1358 649,1377C620,1396 587,1406 550,1406C513,1406 480,1396 452,1376C423,1355 403,1327 391,1290C383,1263 379,1196 379,1088z"
   id="glyph5131" />
<glyph
   unicode="‡"
   horiz-adv-x="1133"
   d="M492,1508l147,0l-23,-354l358,23l0,-148l-358,27l23,-459l-23,-452l358,20l0,-148l-358,28l23,-359l-147,0l24,359l-357,-28l0,148l357,-20l-24,452l24,459l-357,-27l0,148l357,-23z"
   id="glyph5133" />
<glyph
   unicode="∙"
   horiz-adv-x="567"
   d="M284,859C318,859 347,847 371,823C395,799 407,770 407,735C407,701 395,672 371,648C347,623 318,611 284,611C250,611 221,623 197,648C173,672 161,701 161,735C161,770 173,799 197,823C221,847 250,859 284,859z"
   id="glyph5135" />
<glyph
   unicode="‚"
   horiz-adv-x="725"
   d="M350,-274l-77,43C298,-180 315,-140 324,-111C333,-82 339,-45 343,0l-88,0l0,275l181,0l0,-172C436,17 430,-50 419,-99C407,-148 384,-207 350,-274z"
   id="glyph5137" />
<glyph
   unicode="„"
   horiz-adv-x="1028"
   d="M738,-274l-77,44C686,-179 703,-140 712,-111C721,-82 727,-45 731,0l-88,0l0,275l181,0l0,-172C824,17 818,-50 807,-99C795,-148 772,-207 738,-274M293,-274l-77,44C241,-179 258,-140 267,-111C276,-82 282,-45 286,0l-88,0l0,275l181,0l0,-172C379,17 373,-50 362,-99C350,-148 327,-207 293,-274z"
   id="glyph5139" />
<glyph
   unicode="‰"
   horiz-adv-x="2404"
   d="M1384,1536l-1072,-1638l-132,0l975,1492C1040,1362 899,1348 733,1348l-54,1C720,1292 741,1231 741,1167C741,1076 709,994 646,922C582,850 497,814 392,814C295,814 214,848 148,915C82,982 49,1063 49,1159C49,1223 64,1281 94,1334C124,1386 167,1428 222,1460C277,1492 334,1508 392,1508C417,1508 457,1502 514,1490C601,1471 695,1462 796,1462C871,1462 941,1467 1008,1477C1074,1486 1160,1506 1266,1536M395,1381C334,1381 283,1360 240,1317C197,1274 176,1222 176,1161C176,1100 197,1049 240,1006C283,963 334,942 395,942C456,942 508,963 551,1006C594,1049 615,1100 615,1161C615,1222 594,1274 551,1317C508,1360 456,1381 395,1381M1198,649C1293,649 1375,615 1443,548C1510,480 1544,398 1544,303C1544,208 1510,126 1443,59C1375,-9 1293,-43 1198,-43C1103,-43 1021,-9 954,59C886,126 852,208 852,303C852,398 886,480 954,548C1021,615 1103,649 1198,649M1198,522C1137,522 1086,501 1043,458C1000,415 979,364 979,303C979,242 1000,191 1043,148C1086,105 1137,84 1198,84C1259,84 1311,105 1354,148C1397,191 1418,242 1418,303C1418,364 1397,415 1354,458C1311,501 1259,522 1198,522M1996,649C2091,649 2173,615 2240,548C2307,480 2341,398 2341,303C2341,208 2307,126 2240,59C2173,-9 2091,-43 1996,-43C1900,-43 1818,-9 1751,59C1684,126 1650,208 1650,303C1650,398 1684,480 1751,548C1818,615 1900,649 1996,649M1996,522C1935,522 1884,501 1841,458C1798,415 1776,364 1776,303C1776,242 1798,191 1841,148C1884,105 1935,84 1996,84C2057,84 2108,105 2151,148C2194,191 2215,242 2215,303C2215,364 2194,415 2151,458C2108,501 2057,522 1996,522z"
   id="glyph5141" />
<glyph
   unicode="Â"
   horiz-adv-x="1515"
   d="M780,1471l686,-1471l-158,0l-231,484l-634,0l-230,-484l-164,0l695,1471M762,1159l-253,-533l503,0M691,1840l139,0l290,-257l-180,0l-176,152l-184,-152l-186,0z"
   id="glyph5143" />
<glyph
   unicode="Ê"
   horiz-adv-x="1098"
   d="M180,1471l843,0l0,-145l-696,0l0,-460l690,0l0,-144l-690,0l0,-577l690,0l0,-145l-837,0M543,1840l139,0l290,-257l-180,0l-176,152l-184,-152l-186,0z"
   id="glyph5145" />
<glyph
   unicode="Á"
   horiz-adv-x="1515"
   d="M780,1471l686,-1471l-158,0l-231,484l-634,0l-230,-484l-164,0l695,1471M762,1159l-253,-533l503,0M825,1895l215,0l-295,-308l-138,0z"
   id="glyph5147" />
<glyph
   unicode="Ë"
   horiz-adv-x="1098"
   d="M180,1471l843,0l0,-145l-696,0l0,-460l690,0l0,-144l-690,0l0,-577l690,0l0,-145l-837,0M406,1816C438,1816 465,1805 488,1782C511,1759 522,1732 522,1700C522,1668 511,1641 488,1618C465,1595 438,1584 406,1584C374,1584 347,1595 324,1618C301,1641 290,1668 290,1700C290,1732 301,1759 324,1782C347,1805 374,1816 406,1816M814,1816C846,1816 873,1805 896,1782C919,1759 930,1732 930,1700C930,1668 919,1641 896,1618C873,1595 846,1584 814,1584C782,1584 755,1595 732,1618C709,1641 698,1668 698,1700C698,1732 709,1759 732,1782C755,1805 782,1816 814,1816z"
   id="glyph5149" />
<glyph
   unicode="È"
   horiz-adv-x="1098"
   d="M180,1471l843,0l0,-145l-696,0l0,-460l690,0l0,-144l-690,0l0,-577l690,0l0,-145l-837,0M549,1895l218,-308l-138,0l-295,308z"
   id="glyph5151" />
<glyph
   unicode="Í"
   horiz-adv-x="463"
   d="M158,1471l147,0l0,-1471l-147,0M299,1895l215,0l-295,-308l-138,0z"
   id="glyph5153" />
<glyph
   unicode="Î"
   horiz-adv-x="463"
   d="M158,1471l147,0l0,-1471l-147,0M165,1840l139,0l290,-257l-180,0l-176,152l-184,-152l-186,0z"
   id="glyph5155" />
<glyph
   unicode="Ï"
   horiz-adv-x="463"
   d="M158,1471l147,0l0,-1471l-147,0M28,1816C60,1816 87,1805 110,1782C133,1759 144,1732 144,1700C144,1668 133,1641 110,1618C87,1595 60,1584 28,1584C-4,1584 -31,1595 -54,1618C-77,1641 -88,1668 -88,1700C-88,1732 -77,1759 -54,1782C-31,1805 -4,1816 28,1816M436,1816C468,1816 495,1805 518,1782C541,1759 552,1732 552,1700C552,1668 541,1641 518,1618C495,1595 468,1584 436,1584C404,1584 377,1595 354,1618C331,1641 320,1668 320,1700C320,1732 331,1759 354,1782C377,1805 404,1816 436,1816z"
   id="glyph5157" />
<glyph
   unicode="Ì"
   horiz-adv-x="463"
   d="M158,1471l147,0l0,-1471l-147,0M171,1895l218,-308l-138,0l-295,308z"
   id="glyph5159" />
<glyph
   unicode="Ó"
   horiz-adv-x="1780"
   d="M880,1508C1103,1508 1289,1434 1439,1285C1589,1136 1664,953 1664,736C1664,521 1589,338 1440,188C1290,38 1107,-37 892,-37C674,-37 490,38 340,187C190,336 115,517 115,729C115,870 149,1001 218,1122C286,1243 379,1337 497,1406C615,1474 743,1508 880,1508M887,1364C778,1364 675,1336 578,1279C481,1222 405,1146 350,1050C295,954 268,847 268,729C268,554 329,407 450,287C571,166 716,106 887,106C1001,106 1107,134 1204,189C1301,244 1376,320 1431,416C1485,512 1512,619 1512,736C1512,853 1485,958 1431,1053C1376,1147 1300,1222 1201,1279C1102,1336 998,1364 887,1364M958,1895l215,0l-295,-308l-138,0z"
   id="glyph5161" />
<glyph
   unicode="Ô"
   horiz-adv-x="1780"
   d="M880,1508C1103,1508 1289,1434 1439,1285C1589,1136 1664,953 1664,736C1664,521 1589,338 1440,188C1290,38 1107,-37 892,-37C674,-37 490,38 340,187C190,336 115,517 115,729C115,870 149,1001 218,1122C286,1243 379,1337 497,1406C615,1474 743,1508 880,1508M887,1364C778,1364 675,1336 578,1279C481,1222 405,1146 350,1050C295,954 268,847 268,729C268,554 329,407 450,287C571,166 716,106 887,106C1001,106 1107,134 1204,189C1301,244 1376,320 1431,416C1485,512 1512,619 1512,736C1512,853 1485,958 1431,1053C1376,1147 1300,1222 1201,1279C1102,1336 998,1364 887,1364M824,1840l139,0l290,-257l-180,0l-176,152l-184,-152l-186,0z"
   id="glyph5163" />
<glyph
   unicode="Ò"
   horiz-adv-x="1780"
   d="M880,1508C1103,1508 1289,1434 1439,1285C1589,1136 1664,953 1664,736C1664,521 1589,338 1440,188C1290,38 1107,-37 892,-37C674,-37 490,38 340,187C190,336 115,517 115,729C115,870 149,1001 218,1122C286,1243 379,1337 497,1406C615,1474 743,1508 880,1508M887,1364C778,1364 675,1336 578,1279C481,1222 405,1146 350,1050C295,954 268,847 268,729C268,554 329,407 450,287C571,166 716,106 887,106C1001,106 1107,134 1204,189C1301,244 1376,320 1431,416C1485,512 1512,619 1512,736C1512,853 1485,958 1431,1053C1376,1147 1300,1222 1201,1279C1102,1336 998,1364 887,1364M829,1895l218,-308l-138,0l-295,308z"
   id="glyph5165" />
<glyph
   unicode="Ú"
   horiz-adv-x="1341"
   d="M184,1471l147,0l0,-888C331,478 333,412 337,386C344,328 361,280 388,241C415,202 456,169 511,143C566,116 622,103 678,103C727,103 773,113 818,134C863,155 900,183 930,220C960,257 982,301 996,353C1006,390 1011,467 1011,583l0,888l147,0l0,-888C1158,452 1145,346 1120,265C1094,184 1043,113 966,53C889,-7 795,-37 686,-37C567,-37 466,-9 381,48C296,105 240,180 211,273C193,330 184,434 184,583M739,1895l215,0l-295,-308l-138,0z"
   id="glyph5167" />
<glyph
   unicode="Û"
   horiz-adv-x="1341"
   d="M184,1471l147,0l0,-888C331,478 333,412 337,386C344,328 361,280 388,241C415,202 456,169 511,143C566,116 622,103 678,103C727,103 773,113 818,134C863,155 900,183 930,220C960,257 982,301 996,353C1006,390 1011,467 1011,583l0,888l147,0l0,-888C1158,452 1145,346 1120,265C1094,184 1043,113 966,53C889,-7 795,-37 686,-37C567,-37 466,-9 381,48C296,105 240,180 211,273C193,330 184,434 184,583M605,1840l139,0l290,-257l-180,0l-176,152l-184,-152l-186,0z"
   id="glyph5169" />
<glyph
   unicode="Ù"
   horiz-adv-x="1341"
   d="M184,1471l147,0l0,-888C331,478 333,412 337,386C344,328 361,280 388,241C415,202 456,169 511,143C566,116 622,103 678,103C727,103 773,113 818,134C863,155 900,183 930,220C960,257 982,301 996,353C1006,390 1011,467 1011,583l0,888l147,0l0,-888C1158,452 1145,346 1120,265C1094,184 1043,113 966,53C889,-7 795,-37 686,-37C567,-37 466,-9 381,48C296,105 240,180 211,273C193,330 184,434 184,583M610,1895l218,-308l-138,0l-295,308z"
   id="glyph5171" />
<glyph
   unicode="ı"
   horiz-adv-x="410"
   d="M135,1088l141,0l0,-1088l-141,0z"
   id="glyph5173" />
<glyph
   unicode="ˆ"
   horiz-adv-x="1028"
   d="M448,1542l139,0l290,-257l-180,0l-176,152l-184,-152l-186,0z"
   id="glyph5175" />
<glyph
   unicode="˜"
   horiz-adv-x="899"
   d="M746,1492l70,-97C768,1360 728,1337 695,1325C662,1313 627,1307 590,1307C542,1307 493,1319 442,1344C399,1365 371,1378 359,1381C343,1386 326,1388 307,1388C284,1388 262,1384 241,1376C220,1367 189,1348 149,1319l-66,102C144,1486 219,1518 308,1518C351,1518 402,1505 461,1478C518,1452 562,1439 595,1439C632,1439 682,1457 746,1492z"
   id="glyph5177" />
<glyph
   unicode="ˉ"
   horiz-adv-x="993"
   d="M152,1479l690,0l0,-119l-690,0z"
   id="glyph5179" />
<glyph
   unicode="˘"
   horiz-adv-x="928"
   d="M110,1525l132,0C265,1490 295,1464 333,1447C371,1430 416,1421 469,1421C522,1421 565,1429 598,1444C631,1459 662,1486 691,1525l128,0C804,1465 767,1415 707,1375C646,1334 567,1314 468,1314C370,1314 290,1334 228,1374C166,1413 127,1464 110,1525z"
   id="glyph5181" />
<glyph
   unicode="˙"
   horiz-adv-x="455"
   d="M228,1518C260,1518 287,1507 310,1484C333,1461 344,1434 344,1402C344,1370 333,1343 310,1320C287,1297 260,1286 228,1286C196,1286 169,1297 146,1320C123,1343 112,1370 112,1402C112,1434 123,1461 146,1484C169,1507 196,1518 228,1518z"
   id="glyph5183" />
<glyph
   unicode="˚"
   horiz-adv-x="680"
   d="M340,1691C399,1691 449,1670 491,1629C532,1587 553,1536 553,1477C553,1418 532,1368 491,1327C450,1285 399,1264 340,1264C281,1264 231,1285 190,1327C148,1368 127,1418 127,1477C127,1536 148,1587 190,1629C231,1670 281,1691 340,1691M339,1590C308,1590 282,1579 261,1558C240,1536 229,1510 229,1480C229,1450 240,1424 261,1403C282,1381 308,1370 339,1370C369,1370 395,1381 416,1403C437,1424 448,1450 448,1480C448,1510 437,1536 416,1558C395,1579 369,1590 339,1590z"
   id="glyph5185" />
<glyph
   unicode="¸"
   horiz-adv-x="664"
   d="M311,0l88,0l-17,-118C397,-116 410,-115 420,-115C453,-115 480,-125 502,-145C524,-166 535,-191 535,-222C535,-266 515,-303 475,-334C435,-365 379,-380 306,-380C247,-380 191,-370 139,-350l22,69C204,-294 244,-301 281,-301C331,-301 366,-295 386,-282C406,-270 416,-255 416,-236C416,-225 411,-215 400,-206C389,-197 373,-193 354,-193C338,-193 315,-196 284,-202z"
   id="glyph5187" />
<glyph
   unicode="˝"
   horiz-adv-x="1130"
   d="M475,1598l215,0l-295,-308l-138,0M791,1598l215,0l-295,-308l-138,0z"
   id="glyph5189" />
<glyph
   unicode="˛"
   horiz-adv-x="618"
   d="M309,0l109,0C337,-69 297,-133 297,-193C297,-224 310,-250 335,-271C360,-292 396,-303 443,-303C462,-303 485,-301 512,-298l-9,-85C475,-390 447,-393 418,-393C344,-393 288,-375 249,-340C210,-305 190,-262 190,-213C190,-126 230,-55 309,0z"
   id="glyph5191" />
<glyph
   unicode="ˇ"
   horiz-adv-x="1028"
   d="M580,1285l-139,0l-290,257l180,0l177,-152l183,152l186,0z"
   id="glyph5193" />
<glyph
   unicode="Š"
   horiz-adv-x="1020"
   d="M27,274l125,75C240,187 342,106 457,106C506,106 553,118 596,141C639,164 672,194 695,233C718,272 729,313 729,356C729,405 712,454 679,501C633,566 549,645 427,737C304,830 228,897 198,938C146,1007 120,1082 120,1163C120,1227 135,1285 166,1338C197,1391 240,1432 296,1463C351,1493 412,1508 477,1508C546,1508 611,1491 672,1457C732,1422 796,1359 863,1267l-120,-91C688,1249 641,1298 602,1321C563,1344 520,1356 474,1356C415,1356 366,1338 329,1302C291,1266 272,1222 272,1169C272,1137 279,1106 292,1076C305,1046 330,1013 365,978C384,959 448,910 555,831C682,737 770,653 817,580C864,507 888,433 888,359C888,252 848,160 767,81C686,2 587,-37 471,-37C382,-37 301,-13 228,35C155,82 88,162 27,274M576,1583l-139,0l-290,257l180,0l177,-152l183,152l186,0z"
   id="glyph5195" />
<glyph
   unicode="š"
   horiz-adv-x="795"
   d="M703,969l-90,-93C538,949 465,985 394,985C349,985 310,970 278,940C245,910 229,875 229,835C229,800 242,766 269,734C296,701 352,663 437,619C541,565 612,513 649,463C686,412 704,355 704,292C704,203 673,127 610,65C547,3 469,-28 375,-28C312,-28 253,-14 196,13C139,40 91,78 54,126l88,100C213,145 289,105 369,105C425,105 473,123 512,159C551,195 571,237 571,286C571,326 558,362 532,393C506,424 447,462 356,509C258,560 191,610 156,659C121,708 103,765 103,828C103,911 131,979 188,1034C244,1089 315,1116 401,1116C501,1116 602,1067 703,969M463,1285l-139,0l-290,257l180,0l177,-152l183,152l186,0z"
   id="glyph5197" />
<glyph
   unicode="¦"
   horiz-adv-x="1376"
   d="M616,686l0,822l143,0l0,-767M616,-398l0,957l143,54l0,-1011z"
   id="glyph5199" />
<glyph
   unicode="Ð"
   horiz-adv-x="1618"
   d="M213,667l-179,0l0,137l179,0l0,667l366,0C798,1471 958,1453 1058,1418C1200,1368 1311,1281 1392,1158C1472,1035 1512,888 1512,717C1512,570 1480,440 1417,328C1353,216 1270,133 1169,80C1067,27 925,0 742,0l-529,0M354,667l0,-528l230,0C787,139 928,152 1007,177C1118,213 1205,278 1269,372C1332,465 1364,580 1364,715C1364,857 1330,978 1261,1079C1192,1180 1096,1249 973,1286C881,1314 729,1328 518,1328l-164,0l0,-524l387,0l0,-137z"
   id="glyph5201" />
<glyph
   unicode="ð"
   horiz-adv-x="1341"
   d="M430,1508l197,0C662,1483 696,1457 729,1430l164,68l52,-107l-117,-47C973,1205 1077,1069 1142,938C1207,806 1239,682 1239,567C1239,456 1214,355 1165,263C1115,171 1046,100 958,49C870,-2 773,-28 666,-28C511,-28 379,28 270,139C160,250 105,386 105,547C105,706 159,840 268,951C376,1061 504,1116 653,1116C730,1116 814,1094 904,1051C841,1136 770,1214 691,1286l-218,-90l-52,106l175,73C532,1428 477,1473 430,1508M680,982C576,982 482,949 399,884C297,803 246,692 246,550C246,424 288,319 371,234C454,149 554,106 671,106C747,106 818,125 885,164C951,202 1003,255 1040,322C1077,389 1095,465 1095,548C1095,631 1077,706 1042,773C1006,840 956,891 892,928C827,964 757,982 680,982z"
   id="glyph5203" />
<glyph
   unicode="Ý"
   horiz-adv-x="1212"
   d="M63,1471l170,0l376,-606l370,606l170,0l-466,-768l0,-703l-145,0l0,703M674,1895l215,0l-295,-308l-138,0z"
   id="glyph5205" />
<glyph
   unicode="ý"
   horiz-adv-x="1098"
   d="M39,1088l148,0l374,-838l363,838l149,0l-649,-1486l-148,0l210,480M617,1598l215,0l-295,-308l-138,0z"
   id="glyph5207" />
<glyph
   unicode="Þ"
   horiz-adv-x="1212"
   d="M178,1471l147,0l0,-344l146,0C638,1127 751,1120 810,1105C894,1084 963,1042 1017,978C1070,913 1097,832 1097,735C1097,638 1071,557 1019,494C967,430 895,387 804,364C737,348 613,340 430,340l-105,0l0,-340l-147,0M325,984l0,-500l249,-3C675,481 748,490 795,509C842,528 878,557 905,598C932,639 945,684 945,735C945,785 932,830 905,871C878,912 843,941 800,958C756,975 684,984 585,984z"
   id="glyph5209" />
<glyph
   unicode="þ"
   horiz-adv-x="1397"
   d="M158,1508l139,0l0,-620C352,964 416,1021 488,1059C560,1097 640,1116 729,1116C884,1116 1016,1060 1126,949C1236,838 1291,704 1291,547C1291,387 1237,251 1128,140C1019,28 887,-28 733,-28C646,-28 567,-10 494,26C421,62 356,116 297,187l0,-585l-139,0M718,981C597,981 495,939 412,854C329,769 287,664 287,538C287,455 306,381 343,315C380,249 433,197 502,158C571,119 643,100 720,100C795,100 866,120 933,159C999,198 1052,252 1091,322C1130,392 1150,465 1150,542C1150,619 1131,693 1092,762C1053,831 1000,885 934,924C868,962 796,981 718,981z"
   id="glyph5211" />
<glyph
   unicode="×"
   horiz-adv-x="1241"
   d="M712,735l332,-331l-92,-92l-331,331l-332,-331l-92,92l331,331l-331,332l92,92l332,-332l331,332l92,-92z"
   id="glyph5213" />
<glyph
   unicode="¹"
   horiz-adv-x="680"
   d="M224,1489l187,0l0,-756l-110,0l0,658l-150,0z"
   id="glyph5215" />
<glyph
   unicode="²"
   horiz-adv-x="680"
   d="M155,1234l-106,0C50,1313 79,1379 135,1431C190,1482 262,1508 351,1508C434,1508 501,1485 553,1440C605,1394 631,1339 631,1276C631,1236 620,1197 598,1160C576,1123 528,1071 455,1004l-190,-172l377,0l0,-99l-636,0l358,325C435,1122 479,1168 496,1195C513,1222 522,1248 522,1274C522,1310 506,1342 473,1369C440,1396 398,1410 347,1410C290,1410 245,1395 212,1364C179,1333 160,1290 155,1234z"
   id="glyph5217" />
<glyph
   unicode="³"
   horiz-adv-x="705"
   d="M184,1293l-112,0C90,1364 122,1417 169,1454C216,1490 273,1508 342,1508C419,1508 483,1488 532,1448C581,1407 605,1360 605,1305C605,1247 575,1198 514,1159C559,1138 593,1110 617,1075C640,1040 652,1004 652,965C652,898 624,839 568,790C511,740 437,715 345,715C262,715 195,736 144,777C93,818 59,877 44,956l109,0C166,907 189,872 221,849C252,826 294,814 345,814C405,814 453,829 489,858C524,887 542,920 542,959C542,1003 522,1037 482,1062C442,1087 377,1101 288,1104l0,94C356,1198 407,1209 440,1231C473,1252 490,1277 490,1306C490,1333 477,1357 450,1378C423,1399 387,1409 342,1409C305,1409 275,1400 250,1383C225,1366 203,1336 184,1293z"
   id="glyph5219" />
<glyph
   unicode="½"
   horiz-adv-x="1702"
   d="M177,1489l187,0l0,-756l-110,0l0,658l-150,0M277,-37l923,1545l112,0l-925,-1545M1088,492l-106,0C983,571 1012,637 1068,689C1123,740 1195,766 1284,766C1367,766 1434,743 1486,698C1538,652 1564,597 1564,534C1564,494 1553,455 1531,418C1509,381 1461,329 1388,262l-190,-172l377,0l0,-99l-636,0l358,325C1368,380 1412,426 1429,453C1446,480 1455,506 1455,532C1455,568 1439,600 1406,627C1373,654 1331,668 1280,668C1223,668 1178,653 1145,622C1112,591 1093,548 1088,492z"
   id="glyph5221" />
<glyph
   unicode="¼"
   horiz-adv-x="1702"
   d="M188,1489l187,0l0,-756l-110,0l0,658l-150,0M388,-37l923,1545l112,0l-925,-1545M1554,786l0,-528l105,0l0,-97l-105,0l0,-170l-111,0l0,170l-432,0M1443,258l0,248l-214,-248z"
   id="glyph5223" />
<glyph
   unicode="¾"
   horiz-adv-x="1702"
   d="M209,1293l-112,0C115,1364 147,1417 194,1454C241,1490 298,1508 367,1508C444,1508 508,1488 557,1448C606,1407 630,1360 630,1305C630,1247 600,1198 539,1159C584,1138 618,1110 642,1075C665,1040 677,1004 677,965C677,898 649,839 593,790C536,740 462,715 370,715C287,715 220,736 169,777C118,818 84,877 69,956l109,0C191,907 214,872 246,849C277,826 319,814 370,814C430,814 478,829 514,858C549,887 567,920 567,959C567,1003 547,1037 507,1062C467,1087 402,1101 313,1104l0,94C381,1198 432,1209 465,1231C498,1252 515,1277 515,1306C515,1333 502,1357 475,1378C448,1399 412,1409 367,1409C330,1409 300,1400 275,1383C250,1366 228,1336 209,1293M431,-37l923,1545l112,0l-925,-1545M1547,786l0,-528l105,0l0,-97l-105,0l0,-170l-111,0l0,170l-432,0M1436,258l0,248l-214,-248z"
   id="glyph5225" />
<glyph
   unicode="¯"
   horiz-adv-x="1024"
   d="M-12,1727l1048,0l0,-103l-1048,0z"
   id="glyph5227" />
<glyph
   unicode="·"
   horiz-adv-x="682"
   d="M602,870C634,870 661,859 684,836C707,813 718,786 718,754C718,722 707,695 684,672C661,649 634,638 602,638C570,638 543,649 520,672C497,695 486,722 486,754C486,786 497,813 520,836C543,859 570,870 602,870z"
   id="glyph5229" />
<glyph
   unicode="¤"
   horiz-adv-x="1135"
   d="M42,192l116,114C117,361 89,412 74,460C58,507 50,559 50,614C50,673 59,730 78,785C92,827 120,874 161,925l-120,117l90,91l120,-119C302,1053 354,1082 408,1100C461,1117 516,1126 572,1126C626,1126 678,1118 728,1102C778,1086 830,1059 884,1020l117,113l88,-91l-116,-112C1016,877 1046,826 1063,777C1080,728 1088,674 1088,615C1088,558 1080,505 1064,457C1047,408 1019,358 979,306l116,-114l-89,-90l-116,115C837,176 785,146 734,129C682,111 627,102 569,102C512,102 458,111 407,128C356,145 303,175 248,217l-117,-115M193,612C193,509 230,422 304,349C377,276 466,240 569,240C673,240 762,277 835,350C908,423 945,512 945,615C945,718 909,807 836,880C763,953 674,989 570,989C466,989 377,952 304,879C230,805 193,716 193,612z"
   id="glyph5231" />
</font>
</defs>
</svg>
